&title=tape/stop/night
&artist=Sugar & Co.
&first=0
&des=Cyberpsycho
&lv_6=13
&inote_5=
&inote_6=(115)
{1},
6p3[8:6],,,
6b<4[4:2]/3b>5[4:2],
{8}
2q5[4:1],,,6,7p4[4:1],,,3,
2h[4:1],4,5h[4:1],7,8h[4:1],6,5h[4:1],1,
2q5[4:1],,,6,7p4[4:1],,,3,
2,2h[4:1],6,6h[4:1],4,4h[8:3],8,8,
7p4[4:1],,,3,2q5[4:1],,,6,
7h[4:1],5,4h[4:1],2,1h[4:1],3,4h[4:1],8,
7p4[4:1],,,3,2q5[4:1],,,6,
7q5[8:3]*>4[8:3],,,,,,
6^3[8:1],,1-5[8:1],1,6^1[6:1],6,1<5[6:1],,2qq3[16:5],,
5,,6pp5[16:5]b,,B2/E3,,B4/E5,,
3,2,6^3[16:2],7,3,,1-5[16:2],,1V75[16:5]/5V31[16:5],,,,,,
2-4[12:1]/8,,6V85[4:1],5,4,3,2h[2:1],,8,7,
6-8[12:1],,5-1[8:1],,6-2[8:1],,5-3[12:1],,
8-3[8:1],,4pp1^3[8:3],,8xh[4:1],,,,
7,6,5h[8:2],,2,3,4^1[12:1]/8^5[12:1],,
4/8q6[8:11]*>6[8:11],,,,,,,,,,,,,,
,6pp5[8:13],4qq1[8:12]b/6,,,,,,,,,,,,,,,,
3h[1:1],,E4/B4/B3,,E7/B6/B7,,,,6h[1:1],,E6/B5/B6,,E3/B3/B2,,,
1,1>8[8:12],,
E8,,E7,,E6,,E5,,E4,,E3,,E2,,
1-3[12:1]/7,,5,5,2-4[12:1]/8,,6,6,3-5[12:1]/1,,7,7,4-8[8:1]/8,,5-3[12:1],5,
2-5[8:1],2,6-2[8:1],6,1,,
1-7[12:1],1,6-1[8:1],6,2-6[8:1],2,5w1[8:1],,5,,
8^5[8:1]/3,,2^5[8:1],,6pp5[4:1],,4,3,
2,2h[2:1],4,4,5,5h[4:1],4,4,
7-5[12:1],7,8,1,2-4[12:1],2,1,8,
{32}
7h[2:1]/E2,E3,E4,E5,E6,E7,E8,E1,B1,B2,B3,B4,B5,B6,B7,B8,B1/Cf,,,,,,,,
{8}
2b/7-5[12:1],,2-6[8:1],3,5V71^6[16:6],4,3,,3qq3qq4[2:1],,6,,5pp5pp4[2:1]b,,Cf,,,,
1,2,7-3[12:1],6,73,,1-5[12:1],,1V75[16:5]*-5V31[16:5]/8,,,,,,2-4[12:1],,
7-3[8:1],6,4V28[16:2],5,7,,6,5,4qq4[6:1],,E8/B8/B7,,5xpp5[6:1],,E2/B1/B2,,
2x-4[12:1],,1-5[8:1]*-5[8:1],,8-6[12:1]b,,1,,
7-3[8:1],6,5h[4:1],,3x-7[8:1],5x,6x-2[10:1],,
{4}
1s5[8:1],7-3[10:1],1s5[8:1],7^5s1^4[8:7]b,,,,,
1s5[8:1],7-3[10:1],4h[4:3],,
{8}
2xqq6[8:5],,,3xh[2:1],,,
{4},
1s5[8:1],7-3[10:1],1s5[8:1],7^5s1^4[8:7]b,,,,,
1s5[8:1],7-3[10:1],4h[8:4],,
{16}
1h[8:1],,3,3,8h[8:1],,2,2,7,3,6,4,5-8[8:1],,,,
{8}
5/8-3[8:1],1,6/8x-4[10:1],7,8-4v5[8:1]/3v2[8:1],,3xV17-2[8:3],,5,,4V68-5[8:3]b,,3x,,2x,,
1,2,8-4[10:1],7,28,,1-5[10:1],,1-5V31>5[8:3]*V75<1[8:3]/8,,,,,,8x-6[12:1],,
8-4[8:1]/1,3-1[12:1],8,3,7V51[4:1],,4,3,2pp2[6:1],,Cf/B8/B7/E8,,1pp1[6:1]b,,Cf/B6/B5/E6,,
7-4[8:1],,3pp1^3[8:3],,7h[4:1],,,,
6-2[8:1],5,4h[4:1],,2x-6[8:1],3,4-1[8:1],,
{8}
4/1-6[8:1],8,3/1x-5[10:1],2,1-5v4[8:1]/6v7[8:1],,6<2v7[8:3],,4,,5>1v4[8:3]b,,6x,,7x,,
8,7,1-5[10:1],2,71,,8-4[10:1],,8-4V68<4[8:3]*V24>8[8:3]/1,,,,,,1x-3[12:1],,
1-5[8:1]/8,6-8[12:1],1,6,2V48[4:1],,5,6,7qq7[6:1],,Cf/B1/B2/E2,,8qq8[6:1]b,,Cf/B3/B4/E4,,
3-6[8:1],,3pp1^3[8:3],,7h[4:1],,,,
6-2[8:1],4h[8:3],6,,2x-6[10:1],4h[8:3],2x-6p3[4:3]b,,
