&title=HAGAKIRI
&artist=Masayoshi limori
&first=0
&des=Sexps
&lv_6=14
&inote_5=
&inote_6=(172){1},
{1}7pp2[8:7]/1xh[8:15],
{1},
{1}3V58[8:4]/7V14[8:4],
{8}2qq7[8:7]/7,,,,,,,,
{8}1pp1[8:5],,,,,,,8,
{8}8qq8[8:5],,,,,,,1,
{8}1pp1[8:5],,,,,,,8,
{2}8z4[8:5]*s4[8:5],,
{4}7-4[8:3],7,7,7,
{4}6-1[8:3],6,6,6,
{4}3-6[8:3],3,3,3,
{4}1-4[8:3],1,1,1,
{4}8-3[8:2],7,6-1[8:2],5,
{4}4-7[8:2],3,2-5[8:2],1,
{8}7,2,8,3,1,4,8V26-4[8:6]/1V73-5[8:6],,81,,,,,,,,
{8}1h[8:6],,,,,,
7,8,1h[8:6],,,,,,
3,2,1h[8:6],,,,,,
7,8,1h[8:6],,,,,,
3,2,1V38[32:7],,8-4-7[32:8],,7-5[32:3],,1,,
8-4[16:2],,3,,
1-5[16:2],,7,,
8-4[16:2]/7x,6,5,5,1-5[16:2]/2x,3,4,4,
3-1[16:2],1,4-8[10:1],8,5-7[16:1],7,,,
5h[16:8],,,,
{16}4,5,4,5,4,5,4,5,4h[16:8],,,,,,,,
1s5[16:4],,,,,,,,
8-4[16:2],,,,78,,,,
8-4[16:2],,,,28,,,,
8-4[16:2],,,,58,,,,
8-4[10:1],,,,4>5[16:10],,,,,,,,,,,,
4xbw8[16:2],,,,,,,,
1-5[16:2]/3,,,,2,,,,
6-2[16:2]/8,,,,1,,,,
1-4[16:2]/8,,8,,7,,,,
5-1[16:2]/7,,,,6,,,,
3-7[16:2]/8,,,,8,,,,
1-4[16:2]/8,,8,,7,,,,
{8}1-4[8:3],,1,,1,,1,,
{8}2-7[8:3],,2,,2,3,4,5,
{8}5-1[8:3],,5,,5,6,7,8,
{16}2,,21,,7,,87,,56,,45,,4/3-8[8:1],,,,
1>4[8:1],,,,5<8[8:1],,,,3,,2,,1,,8,,7<4[8:1],,,,1>4[8:1],,,,6,,7,,8h[4:1],,,,
2,,21,,7,,87,,3,,21,,6,,87,,1-4[10:1]/2,,2,,8/1-6[10:1],,8,,1s5[16:3]/2,,3,,,,,,
8<5[8:1],,,,4>1[8:1],,,,6,,7,,8,,1,,
3xb-1[32:3]/7xb-5[32:3],,,,7xb-4[8:1]/3xb-8[8:1],,,,3xb-7[10:1]/7xb-3[10:1],,,,,,,,
4,,65,,3,,43,,4,,65,,3,,43,,5<8[10:1]/6,,4,,4/5-2[10:1],,3,,5-1[10:1]/6,,8,,8,,,,
{2}7bs3[32:16]*>6[4:9]*>4-6[4:9],,,,,,
7h[2:1],8h[2:1],
{8}1pp1[8:5],,,,,,,,
{8}7qq7[8:5],,,,,,,,
{8}2pp2[8:5],,,,,,,,
7h[2:1],,,,{8}8-4[8:1],1,2,3,
{16}6,,6,,8,,2,1,2,1,3,,7,8,7,8,6,,3,4,3,4,2,,
1-5[8:1],,8,,7,,6,,
2,,2,,4,,2,1,2,3,2,,7,8,7,6,7,,3,4,3,2,3h[4:1],,6,,5,,4,3,4,,
2,5,7,5,4,5,6,5,4,2,4,6,4,3,4,5,4,5,6,5,4,3,4,5,4,5,6,5,4,3,4,5,
4,5,6,5,4,3,4,5,4,5,6,5,4,3,4,5,
{32}4,3,2,1,8,7,6,5,4,3,2,1,8,7,6,5,4,3,2,1,8,7,6,5,
{4}4bw8[16:6],,,
{8}4-8-3-5-2-4[8:6],,3h[8:4]/4,,,,,,
1-6[10:1]*-4[10:1],1,,,
5x<8[10:1],5x,5x,5x>2[10:1],5x,5x,5x-1[10:1],4,3,2z6[16:9],,,,,,,
{16}5x,6x,7x,8x,1xs5[16:4],2x,3x,4x,
{8}1xb-7^5-3^1-7[8:5],,1,,,,,,
5-1[10:1]*-7[10:1],5,,,
{16}8x<5[10:1],,8x,,8x,,8x>3[10:1],,8x,,8x,,8x-4[10:1],,8x,,8x,,1,,2h[16:4],,,,
{32}8,1,2,3,4,5,6,7,8,1,2,3,4,5,6,7,{4}8bw4[16:6],,,
{16}8,5,6,5,8,5,4,5,8,5,6,5,8,5,4,5,8h[16:4],,,,3,5,3,4,3,6,3,4,3,8,3,4,2,6,2,4,
{16}2,5,2p8[16:8],4z8[16:7],{8},,,,,,
{16}1x,8x,7x,6x,5x-8[16:2],4x,3x,2x,
5bqq7[8:3],,,,5xb/8xb-2[32:3],,,,8xbqq1[8:3],,,,3xb-5[32:3],,,,3xbs7[16:3],,,,3xb/5xb<8[16:3],,,,
5-1[8:1],,4,,3>8[8:1],,4,,3-7[8:1],,5,,6<1[8:1],,5,,6-2[8:1],,5,,4>1[8:1],,3,,4-8[8:1],,8,,4-7[8:1],,5<4[8:4],,,,,,,,,,
{48}8v5[8:1],,,,,,,,,,,,8b>3[10:1],7,6,,,,,,,,,,
8bv5[10:1],7,6,,,,,,,,,,8b>3[10:1],7,6,,,,,,,,,,
8bv5[10:1],7,6,,,,,,,,,,
2bV48[4:1],,,,,,,,,,,,
8bV25[4:1],7,6,,,,,,,,,,5bV38[4:1],6,7,,,,,,,,,,
8bV25[4:1],7,6,,,,,,,,,,5bV38[4:1],6,7,,,,,,,,,,
8bz4[8:5],7,6,,,,{8},,,,,,,
{16}5x,6x,7x,8x,4x-7[16:2],3x,2x,1x,
4xbqq7[8:3],,,,4xb/6xb-1[8:1],,,,6xb-4[32:3],,,,8xbq3[32:11]/6xb,,,,8xb-5[32:3],,,,8xb,,,,
{8}7xb/6,6xb/5,5xb/4,4xb/3,3b/2,3/4b,4/5b,5/6b,
{16}7b,5,6b,5,8b,5,4b,5,8b,5,7b,5,1b,5,3b,5,2bz6[4:31],,,
