&title=管道
&artist=TDX
&first=-0.89
&lv_5=14
&des_5=青芽
&inote_5=
(146){4},,,,{1}8<1p8[2:3],
,1>6p8[2:3],
C,
{2}1/8<5[4:3],3,
{4}1x,1s5[8:1],{2}1b,
{4}6/4,7,5/3,2,
{2}1h[2:1],{24}B8,B7,,B1,B2,,E7,B6,,{8}E3,
5/3,6,{4}7,6/4,5,
4,{8}5/3,2h[8:3],{2}B2/B3/E3,
{8}8/2,3,{4}5V73[4:1],3q1[4:1],1qq7[4:1],
2,{8}1,2h[8:3],{2}E1/B8/B1,
{8}4/6,3,{4}2,3/5,4,
5,{8}4/6,7p4[4:1],{2}B3/B4/E4,
{8}5/3,6,{4}7/4,2/5,1,
2,{8}6,7,1w5[8:1],8/2,{4}1bx,
{8}8/2,1,1/8-5[8:1],{16}2,2-6[8:1],8,{8},{16}2,{8},4b,
1/7,8,8/1-4[8:1],{16}7,7-3[8:1],1,{8},{16}7,{8},5b,
6/4,5,6/4,{16}3,3>8[8:1],{32}5,6,{16}7,,{32}6,5,{8}4,5b,
5-7[8:1],5-3[8:1],5-8[8:1],5-2[8:1],5,5,{4}1h[8:1],
{8}2/8,7,1/2-7[8:1],{16}8,8-4[8:1],2,{8},{16}8,{8},8b,
1/7,7,8/2q4[8:1],{16}1,1v6[8:1],2,{8},{16}1,{8},3b,
2/5,6,7/1,{16}8,8,{32}1,2,3,4,{16},8,{32}4,3,2,1,{8}8b,
1x/8xh[8:3],2,3,4,4/Ch[8:3],3,2,1,
{16}8,2,8,2,7-4[8:1],1,7,1-5[8:1],7,{8},{16}1b,{8},4b,
{16}2,5,3,6,4qq1[16:5],7,5,8-5[8:1],4,{8},{16}8b,{8},6b,
{16}5,4,6,3,7-3[8:1],2,8,1-5[8:1],7,{8},{16}1b,{8},4b,
3,4,5,6,1w5[8:1],2/8,{4}1,
{16}6,5,8,1,4-8[8:1],3,1,2-7[8:1],4,{8},{16}2b,{8},6b,
{16}7,8,5,4,6<1[16:3],3,5,1-5[8:1],6,{8},{16}2,{8},1b,
{16}4,3,1,2,8-4[8:1],1,7,2-5[8:1],8,{8},{16}2b,{8},6b,
{4}7h[8:3]/4h[8:1],2h[8:1],{16}8-4[8:1]/1-5[8:1],{8},{16}7/2,{4}8/1,
{1}3b/6b<3[4:13],
{2},{4}E8,E1,
E2,{2},{4}Ch[2:1],
{2},{4}6,4,
{8}4/6h[4:3],3x,3x,3,2x,2x,{4}2,
{8}5/3h[4:3],6x,6x,6,7x,7x,{4}7,
{8}B3/B4/B7h[4:3]/B6h[4:3]/E7h[4:3],B2,B1,E1/B8,B1,B2,{4}B3/B4,
{8}6/2h[2:1],6,6,7,{4},2b/8bV62[4:1],
{8}2<5[2:1],3,{4}4,5V31[4:1],1<5[4:1],
5-7-4-8[8:5],{8}4,3,{2},{8}2q5[4:1],
6,{4}5<1[4:1],1<5[4:1],5>3v1[4:1],
1-7-2-6-3-5[8:5],{8}6,6,{4},7,
{8}7<4[8:1],3,{4}7/2,2/3-7[8:1],3/1,
{8}1-6-4[4:1],2,4-8[8:1],3,{4}2x,3,
{8}1/2,3,{4}4/2<7[8:1],2/3-6[8:1],3/6,
5/7-3[8:1],7/6,{8}5/4,6,{4}7,
{8}5/8xh[8:1],4,3/7b,2,3,{32}6,4,6,4,{8}6b,3,
{4}3>8-4[4:1],7b,,6b,
{8}5,6,3b/7,6,6,{32}2,5,2,5,{8}2b,5,
{4}6,{8}7/3b,6,{4}5,2b,
{8}2-6[8:1],2,{4}1-5[8:1],8-4[8:1],7-3[8:1],
6-2[8:1],{8}5p1[8:1],5,{2}5,
{8}2/1-5[8:1],2,{4}2/1-3[8:1]*-4[8:1],1-7[8:1]*-6[8:1],1-5[8:1],
1,{8}6,7,8b/1b,8/1,8/1,8/1,
{16}1,7,2,6,3-8[8:1],5,4,5-8[8:1],3b,{8},{16}5b,{8},1b,
{16}8,2,7,3,6-1[8:1],4,5,4-1[8:1],6b,{8},{16}4b,{8},8b,
{16}8,2,8,2,1,1,1,1,{32}1,8,7,6,{16},{32}1,2,3,4,{16},{8}6,
{32}5/4,6,7,8,{8},{32}1/2,8,7,6,{8},1bw5b[8:1],8,{4}1,
{8}6/5,7,3/4,2,7/5,6,2/4,3,
8/6,7,1/3,2,7,8,2,1,
{16}1,8,1,8,2,7,2,7,{32}3,4,5,6,7,8,1,2,3,4,5,6,7,8,1,2,
{8}5b/3h[4:3],5b,5b,5b,6b,7b,{4}8b,
{8}8-6[8:1],1-3[8:1],8-4[8:1],1,8<4[8:1],1,{32}1,2,3,4,{8},6-8[8:1],
2-4[8:1],6-4[8:1],2-8[8:1],{4},{32}4,3,2,1,8,7,6,5,
{8}3h[16:1],3h[16:1],4h[16:1],2h[16:1],5h[16:1],2h[16:1],1-5[8:1],{16}7<4[8:1],7,
{8}1>3[8:1],7,1-6[8:1],6>3[8:1],{4}1bx,{32}E8/B7,B8,{16},{32}E1/B1,E2,{16},{8}2x/3x,
1x,8-4[8:1],3-6[8:1],8-5[8:1],3,{4},{8}4<1[8:1],
1>4[8:1],{4}2h[2:1],{32},6-1[8:1],7,8,,1-6[8:1],3,4,{4}5,
{8}3,2,{4}1/6p4[4:1],6/4q6[4:1],{8}3,2,
1,1,1,{32}1/8,2/7,3/6,4/5,{4},6b,
{16}2-5[8:1],{8},{16}2,2/7-3[8:1],{8},{16}7,7/4qq1[4:1],{8},{16}4,{4}4,
{16}8-4[8:1],{8},{16}8,8/2-7[8:1],{8},{16}2,{12}2/5v8[8:1],5,5,5/3-7[8:1],3,3,
{16}3/8<5[8:1],{8},{16}8,8/2v7[8:1],{8},{16}2,2/4-8[8:1],{8},{16}4,{12}4/3-7[8:1],3,3,
{16}3>8[8:1],{8},{16}5,5-1[8:1],{8},{16}5,{12}5/4-8[8:1],3,3,4/7v4[8:1],7,7,
{16}7/2-6[8:1],{8},{16}2,2/5v8[8:1],{8},{16}5,5/8v5[8:1],{8},{16}1,1-4[8:1],{8},{16}1,
1/6q3[8:1],{8},{16}6,6/4v1[8:1],{8},{16}4,{4}4,2/8-4[8:1],
{16}8-6[8:1],{8},{16}3,3v1[8:1],{8},{16}3,3/5v7[8:1],{8},{16}5,{12}5/2-6[8:1],2,2,
{16}2V46[8:1],{8},{16}7,{4}7,{8}7/Ch[4:1],7,{4}7b,
{16}1,7,1,7,2-5[8:1],8,2,8-4[8:1],2,{8},{16}8b,{8},5b,
{16}7,4,6,3,5pp8[16:5],2,4,1-4[8:1],5,{8},{16}1b,{8},3b,
{16}5,4,6,3,5,4,6,3,{32}5,6,7,8,{16},{32}4,3,2,1,{16},{32}6,7,{16}8,
{8}2,2,2-4[8:1],2-8[8:1],{2}2-6[8:1],
{16}8,5,8,5,7,6,7,6,{32}8,1,2,3,{16},{32}6,5,4,3,{16},{8}1b,
{16}7,1,7,1,8,8,8,8,{32}8,7,6,5,{16},{32}8,1,2,3,{16},{32}5,4,{16}3,
2,4,2,4,1,5,1,5,8,6,8,6,7,7,7,7,
{8}8,1,2,1,{32}6,7,8,1,{16},2,{32}1<2[4:5]/2>1[4:5],3/8,4/7,5/6,
E
