&title=スプリットダンス
&artist=えいぷ
&first=0.02
&des=死ね
&lv_5=13+
&des_5=死ね
&inote_5=
(185){4},,8p4[8:1],{8}2,3<7[8:1],
1,1-4[8:1]*-6[8:1],,1,,2x/3x,{4}2x-7[8:1]/3x-6[8:1],
{2}A2/A3/E3f,{4}5/3,{8}6,6,
4,5,3,6,7/8,1,8/2,3,
{2}6h[4:1]/4>1[8:1],{4}4/6,{8}6,6,
3,5,3,4,2/1,8,1/7,6,
7/5,3,2/4,1,{4}7b/5b,{8}4,4,
6,5,7,4,1/2,3,1<6[8:1]/2>5[8:1],8,
{2}1/2,{4}5/3,{8}6,6,
4,5,3,6,7/8,1,8/2,3,
5b/4b,5b/4b,6b/3b,6b/3b,{4}3/6pp4[8:11],3,
3,2,2,3-8[8:1],
{2}3,{8}7/4,{16}5,6,{8}5,6h[8:3],
8,1,2,3,{4}7V53[4:1],3V17[4:1],
{2}7V52[4:1],{4}8h[1:1],2,
2,3,4,6/5,
{8}6h[4:1]/5h[4:1],,,1b/2b,8b/3b,,,8b/7b,
6b/1b,,,7b/3b,{4}7b-2[8:1]/3b-6[8:1],7b/3b,
8xv7b[8:1]/1xv2b[8:1],8b/1b,{16}3,4,3,7,5,6,3,4,
{4}2h[8:1],{16}2,5,4,5,3,6,5,6,{4}4h[8:1],
8h[8:1]/6h[8:1],2h[8:1]/4h[8:1],{16}6,5,6,3,4,3,7,5,
{4}6h[8:1],{8}6/4-2[8:1],3,4/5-7[8:1],6,{4}5-1[8:1]/4-2[8:1],
5-7[8:1]/4-8[8:1],5b/4b,{16}2,5,4,5,3,6,5,6,
{4}3h[8:1],{16}3,8,1,8,2,7,8,7,{4}1h[8:1],
7-4[8:1]/3-8[8:1],7/3,B7/C,B1/E1/E2,
B2/C/B5/B4/B3,E8/B8/B1,D7/B6/B7/A7,E1/B1/E2/B2,
E8/E7/A7/B7,E3/B3/D3/A2/B2,{2}Cf/B3/B1/B7/B5/B6/B2,
{4},2-7[8:1]/3-6[8:1],{2}E3f/A2/A3,
{4},7-2[8:1]/6-3[8:1],{2}A7/E7f/A6,
{4},2b/7b,{16}1bh[16:3],,,2bh[16:3],,,{8}3bh[8:1],
{16}8bh[16:3],,,7bh[16:3],,,{8}6bh[8:1],{4}4p8[2:1],6,
6,6,6pp4[8:5],3,
3,3,{2}1bh[4:1]/2bh[4:1],
{8}8bh[4:1]/7bh[4:1],,,5bV37-4-1[8:5]/4bV62-5-8[8:5],,,,,,,,,{4}7-5[8:1]/1-5[8:1],
1/7-3[8:1],
{8}7/3,,,1xh[16:3]/6xh[16:3],{32},,,7x/2x,{8}8xh[16:3]/3xh[16:3],{32},,,2x/7x,{8}1xh[8:1]/6xh[8:1],
,B6/B5,{4}B2/E3,4-2[8:1]/5-1[8:1],4/5,
4-8[8:1]/5-7[8:1],4/5,1x/2x-6b[8:1],7-1[8:1]*-3[8:1],
{2}A7f,{4}2-4[8:1]/8-4[8:1],8/2-6[8:1],
{8}2/6,,,1xh[16:3]/6xh[16:3],{32},,,7x/2x,{8}8xh[16:3]/3xh[16:3],{32},,,2x/7x,{8}1xh[8:1]/6xh[8:1],
,B6/B5,{4}B2/E3,{8}6/2,7,4/8h[4:1],3,
2,5/1h[4:1],6,7,1/7-2[8:1],8,{4}3-8[8:1]*-7[8:1],
3b,1b/6b,{8}3,2,4,3,
5,4,6,3,2/1,8,1/7,6pp4[4:1],
{2}3h[4:1],{4}5/3,{8}3,3,
6,4,6,5,2/1,8,1/7,6,
7/5,3,2/4,1,{4}7b/5b,{8}4,4,
6,5,7,4,1/3,2,8/6,7,
{2}5/4qq5[4:1],{4}6,{8}4,6,
3,5,6>3[8:1],6,2<7[8:1],2,6>3[8:1],6,
2<7[8:1],2,6,6,{4}6b/4b,{16}3,4,3,4,
{4}3V17[2:1],6,{16}6,5,{8}4h[8:1],,,{2}4V26b[4:1],
{4}1<5[2:1],{16}4,3,{8}2h[8:1],
,,{4}2-6[8:1]*-5[8:1],2<4[4:1],2,
2V84[8:3],5-7b[8:1],5b,{16}2,1,2,1,
{4}2<5[4:1],7,{16}2,1,8,7,{4}6/2,
{2}7b-4[8:1]/3b-8[8:1],{16}6/C,,,3/C,,,{8}8/C,
{16}3/C,,,7/C,,,{8}2/C,{4}6>2[4:1],2<6[4:1],
{16}6z2b[8:1],,,,,,,,,5,4,5,3,6,5,6,
{4}3h[8:1],{16}3,8,1,8,2,7,8,7,{4}1h[8:1],
7-4[8:1]/3-8[8:1],7/3,{16}6,5,6,3,4,3,7,5,
{8}6,1>4[8:1],8,7/1,6-4[8:1],3,6/2-7[8:1],1,
{4}8-4[8:1]/2-4[8:1],8b/2b-6[8:1],{2}A2f,
{4},,,,,1b/2b,
{8}2q6[8:1],1,2,1,
2v7[8:1],8,2,8,{4}2-7[8:1]/3-6[8:1],2-6[8:1]/3-7[8:1],
2-7[8:1]/3-6[8:1],2v7[8:1]/3v6[8:1],2b/3b,{8}4,4,
5,4,6,5,{4}2b/8b,{8}3,2,
4,3,5,4,{4}2b/6bq2[8:1],{8}3,5,
4,6,5,7,{16}1b/2b,,,3b/8b,,,{8}7b/4b,
{16}8b/7b,,,6b/1b,,,{8}5b/2b,{4}4b/3b,{8}2,4,
3,5,4,6,{4}8bv7b[8:1]/1bv2b[8:1],8b/1b,
{8}5,4,6,5,2b/8b,4,5,3,
7b/1b,5,4x,{16}1x,2x,8x,7x,2x,3x,7x,6x,3x,4x,
6x,5x,4x,3x,,,2x,6x,3x,7x,2x,6x,3x,7x,2x,6x,
{32}3x,Cf,{4},,,{16},,,{1}Cfh[4:15],
{4},,,,,,,,,,,A2/D3/D2/E3/E2/D6/A6/D7/B6/E6/E7,
4p8[2:1],6,6,6,
6pp4[4:3],3,3,3,
{8}2,2,3/5,3,6/4h[8:3],6,7,8s4[4:1],
,1b,1b,1b,{4}1b<3[4:1],1,
1b,2b,2b,{32}8b/2bh[8:1],7x,6x,5x,,,,,1b/3bh[8:1],
8x,7x,6x,,,,,2b/4bh[8:1],1x,8x,7x,,,,,,,,,{8}B1/B2,{4}B1/B2,
4-2[8:1]/5-1[8:1],4/5,4-8[8:1]/5-7[8:1],4/5,
1x/2x-6b[8:1],7-1[8:1]*-3[8:1],{2}A7f,
{4}2-4[8:1]/8-4[8:1],8/2-6[8:1],{8}2/6,,,1bxh[16:3]/6bxh[16:3],
{32},,,7bx/2bx,{8}8bxh[16:3]/3bxh[16:3],{32},,,2bx/7bx,{8}1bxh[8:1]/6bxh[8:1],,B6/B5,{4}B2/E3,
{8}6/2,7,4/8h[4:1],3,2,5/1h[4:1],6,7,
1/7-2[8:1],8,{4}3-8[8:1]*-7[8:1],A3f,1b/6b,
3/4<7[8:1],{8}1-5[8:1],2,{4}1w5b[8:1],1,
2x-5[8:1]/6x-2[8:1],6/2<3b[4:1],4b,1b,
{8}8/7,6,5/4,3,{4}1/2-5b[8:1],2/6-1[8:1],
6/4-7[8:1]*-1[8:1],4,{8}6<1[8:1]/2>5[8:1],5/1,{4}6b/2b,
1bx<6b[8:1],{8}1/5,4,{4}3b/5bh[4:1],{32}1x,2x,{16}3bxh[16:3],,,{4}6b-1b[8:1],
6b/4b-7[8:1],4b/2b-6b[8:1]*-5[8:1],2b,
{2}7bh[4:1]/4bh[4:1],5bh[4:1]/2bh[4:1],
{4}1b/7<4[8:1],7b/2q6[8:1],2b/8p4[8:1],8b/3q5[2:1]*>5[2:1],
3b,,,8w4b[8:1],
{8}A8f,{16},,,,1,8,7/2,,,4b/3b,,,{8}5b/4b,
{4}4/5,{8}3,3,5,4,6,3,
2/1,8,1/7,6,{2}3h[4:1]/5<8[8:1],
{4}5/3,{8}3,3,6,4,6,5,
7/8,1,8/2,3,2/4,6,7/5,8,
{4}2b/4b,{8}5,5,3,4,2,5,
8/7,6,8>3[8:1]/7<4[8:1],1,{2}8/7,
{4}4/6,{8}1/2,3,6/4,5,7/6,8,
7,1,8/2,3,5b/4b,5b/4b,6b/3b,6b/3b,
{4}7h[4:1],{16}5,5,6,3,4,2,{8}8-4b[8:1],1,8,
E
