&title=メモリア
&artist=Aira
&first=0
&des=TCXLZ vs HK416 TZ
&lv_5=14+
&des_5=TCXLZ vs HK416 TZ
&inote_5=
(205){4},{1},{4},,,{16}2b-5[8:1],
1,3,1,{8}2x,{16}7b-4[8:1],8,6,8,{8}7x,{16}1bx,2,3,4,
8b,1,8,1,8,1,8,1,2,8,7,1,2,8,7,1,
{1}2<2[2:1],
{8}8/1-5[8:1],2,1/8-4[8:1],7,8/2-7[8:1],{16}3,3,{8}2/5-1[8:1],6,
5/2-7[8:1],{16}3,3,{8}2/5<1[2:1],6,{16}5/1,2,3,4,5,6,3,4,
{8}5b,6,4,5,3,{16}8,8,{8}1/7,6,
2,6,{12}3/5,3,3,5/3,5,5,1/5,1,1,
{8}1b,{24}8,7,6,{8}5,4-1[8:1],1-6[8:1],6-3[8:1],3-8[8:1],8-5[8:1],
5>1[8:1],{16}A8,E7,{8}A5,6h[4:1],{16},,,,,,6,7,
{4}8,{16}1,2,3,4,2,3,4,5,6/4,3,2,1,
{8}8,{24}1,8,7,{8}6,8/1>4[8:1],7,6,5,{16}6-1[8:1],5,
{8}6,6,5,4,3,{16}3-8[8:1],4,{8}3,3,
4,{16}1,2,{8}3,1,{16}1,8,7,6,5b,1,2,3,
{8}4b,8-4[8:1],7,8/6-2[8:1],5,6h[16:1],4-8[8:1],3,
4/2-6[8:1],{16}1,1,{8}2,8b,,1b,{16},,,,2b,
1,2,1,{8}2,{16}7b,8,7,8,{8}7,{16}3b,4,3,4,
{8}3,{16}6b,5,6,5,{8}6,{16}4bx,5bx,4b,5b,4b,5b,4b,5bx>4>8<6>4s8b[16:17],
{1}4x<4z8[1:1],
{8},,,,1h[16:1],1h[16:1],1h[16:1],1h[16:1],
1h[16:1],{16}A8,D8,{8}1h[16:1],{16}A7,D7,{8}1h[16:1],A6,1h[16:1],D6,
{4}1h[16:1],1h[16:1],{8}8h[16:1],{16}A1,D2,{8}8h[16:1],A2,
{4}8h[16:1],{8}8h[16:1],D3,8h[16:1],A3,{4}8h[16:1],
1b,1b,{8}1,8,1,8,
{12}1,1,1,8,8,8,5/3,3,3,4/6,6,6,
{8}1>5[4:1],7,5<1[8:3],C,,1>5[4:1],1,5<1[8:3],
C,,,5,{2}5,
{4}Ch[4:3],E1,E3,E5f,
{8}1bh[16:3],{16}8,8,{8}2h[16:3],{16}8,8,{8}3h[16:3],8,2h[16:3],8,
{4}1<5[4:1],5<1[4:1],{8}1<5[4:1],3b,5<1[4:1],3b,
{4}1<5[4:1],{8}5<1[4:1],3b,1<5[4:1],3b,,,{4}1b,
2/6,{16}4,,,7,{8}8,{16}6,5,
{4}4-8[2:1],{8}1,8b,,5,{4}4b,
{16}1,1,{8}8b,,8,{16}1bh[16:1],,,2h[8:1]/8h[8:1],,,{8}3h[16:1]/7h[16:1],
{4}5-1[2:1],{8}4,6,{4}3,{8}8,8,
{16}2,1,2,8,1,7,8,7,{8}1,6,4,7,
1b,5,3,7,,8,,8,
,B1/A1,B2/A2,B3/A3,{4}B4/A4,{8}A8/B8,A7/B7,
A6/B6,A5/B5,,1w5[8:1],,B1f,{24},,,,,,,,,,,,{12}8b,
7,7,6,6,5,5,4,4,
{4}3,1,{12}1b,1,2,2,3,3,
4,5,5,6,{24},{8}7b,{4}8b,{8}1b,{16}8bx-4[8:1],8,
{8}8,8b,{16}7bx-3[8:1],7,{8}7,7b,{16}6bx-2[8:1],6,{8}6,6b,
{16}5bx-1[8:5],5,{8}5,{16}5b,8,7,6,5b-1b[8:1],2,3,4,{4}5bx,
{8}5,1,6,2,7,3,{4}8<8[2:1],
8b,{8},,,,6,{16}6-8[8:1],5,
{8}6,6,{4}5,{8}3,{16}3-1[8:1],4,{8}3,3,
{4}4,{8}5/4,{16}4,5,{8}4,5,{4}4b,
{16}1,8,1,8,2,7,2,7,3,6,3,6,{4}3b-1[8:1],
3b/4b-8[8:1],4b/3b-7[8:1],3b/4b,{8}1-5[8:3],{16}7,8,
{8}1,2,3,4,1,{16}8,1,{8}8,{16}2,1,
{8}2,{16}7,8,{8}7,{16}1,8,{8}1,{16}8,1,{4}8b,
{16}8,7,6,5,2,3,4,5,8,1,2,3,{12}8,8,8,
4/8,4,4,4/2,2,2,2/6,6,6,6/1-5[4:1],{48},,{16}1,8,
{8}1,5,{4}1,{8}5b,{16}4-8[8:1],3,{8}2-6[8:1],4,
{4}2,{8}4b,{16}5-1[8:1],6,{8}7-3[8:1],5>1[8:1],7,5,
,5,,5,{4}4,{8}1,5,
{16}1,6,2,6,2,7,3,7,3,8,4,8,{8}4,8,
1-5[8:1],2-6[8:1],1,2,{16}7,8,7,8,{4}7,
,1,,4h[4:1]/6h[4:1],
,1>4[4:1],1<6[4:1],1b-4[4:1],
1b-6[4:1],1b-5[4:1],1b,{8}1,{16}7,6,
{8}5,3,7,3,7,3,8,{16}1,2,
,2,{8}3,{16}3,4,,4,{8}5,5,6b,{24}6,7,8,
1,2/6,5/1,4/8,7/3,6/2,{8}5/1,5,1,5,{4}1b,
1b,1b,1b,{16}3,3,3,3,
7,7,7,7,2,6,2,6,2,6,2,6,4,5,6,7,
2,3,4,5,8,4,8,4,8,4,8,4,{8}6,1/3,
2h[8:1],,,4,,6,{12}4/6,4,4,
5/3,5,5,1-5[8:1],1,1,8/1,8,8,8b,{48},,{16}1-5[8:1],1,
{8}1,{16}2-6[8:1],2,{8}2,{16}3-7[8:1],3,{8}3,3,1b,{16}8,8,
{8}1,{16}7,7,{8}1,{16}6,6,{8}1,5,1>3[8:1],{16}6,6,
{8}1-4[8:1],{16}7,7,{8}1-5[8:1],{16}8,8,{8}1-4[8:1],{16}7,7,{8}1>3[8:1],6,
1,8,{12}1/5,2/6,3/7,1/5,2/6,3/7,8b,{24},{8}8,
{16}4,4,4,4,5,4,4,4,6,4,4,4,{4}5,
8,1,,1<1<1<1[1:7],
,,,Cf,
,,,,,,,Cf,
,,,Cf,
,,,Cf,
,,,Cf,
{8},,,,,,,,,,,,,,1-5[8:1],
2-6[8:1],
1<5[8:1],2,{4}1,{8}8-4[8:1],7-3[8:1],8>4[8:1],7,
{4}8,{8}1-3[8:1],8-6[8:1],1-5[8:1],8-4[8:1],1,8,
,1,,1,{2}8,
{8}1,8,,,,,1,1,
{4}1,{8}8,8,{4}8,4>1[2:1],
6,7,8,{16}1b,8,1,8,
1b,7,1,7,1b,6,1,6,1b,5,1,5,1,1,1,1,
1,1,1,1,{4}1q5[8:1]*p5[8:1],1,{8}2,{16}7,8,
7,8,{8}6,5,4,8b,{16}2,1,2,1,{8}3,
4,5,8,{16}2,1,{8}2,7,8,{16}1-5[16:3],8,
7,6,1,2,3,4,1x,1x,1x,1x,1x,1x,{4}1-5[8:1],
1-4[8:1]*-6[8:1],1-3[8:1]*-5[8:1],1b,{8}1b,{16}3,4,
{8}5,8,{16}1,7,2,6,3,5,{8}4h[16:1],1/8-4[8:1],{16}7,7,
{8}8/1-5[8:1],{16}2,2,{8}1/6-3[8:1],{16}7,7,{8}6/2-7[8:1],{16}1,1,{4}2,
{16}8,8,7,7,6,6,1,1,2,2,3,3,{12}1/7,1,1,
8/2,8,8,1/5,5,5,3/7,3,3,1b,{48},,{16}1,8,
1,8,{8}1,1,1,1b,{16}1,8,1,8,{8}1,
1,1,1b,{16}1,8,{8}1,1,1b,{16}1,8,
{8}1,1b,{16},,1,8,{2}1b,
{16}1,2,3,4,5,6,7,8,1,1,1,1,{8}1b,3-8[8:1],
2,3/7-4[8:1],6,7/3,{16}1,8,1,8,{4}1b-6[8:1]*-4[8:1],
1b-5[8:1],1b<6[8:1]*>4[8:1],1b,{16}2b,1,2,1,
7b,8,7,8,3b,4,3,4,6b,5,6,5,8,7/3,6/2,5/1,
4/8,3,2,1,8,7/3,6/2,5/1,4/8-4[8:1],7,6-2[8:13],5,{4}4,
,,,A6,
,C,B2,{12}1b,1,1,
3b,3,3,5b,5,5,7b,7,7,2-5[8:1],1,1,
7-4[8:1],8,8,2-5[8:1],1,1,{4}8b,{12}1-4[8:1],1,1,
8-5[8:1],8,8,2-7[8:1],2,2,6-3[8:1],6,6,6,,,{4}8,
{12}2,,6,{4}4,{12}2<7[4:1],2,2,
7-3[4:1],7,7,3<6[4:1],3,3,6-2[4:1],6,6,2-4-8[4:1],2,2,
8-6-2[4:1],8,8,2<8-4[8:1],2,2,{4}8b,{8}1b,{16}2-6[8:1],2,
{8}2,{16}1b-5[8:1],1,{8}1,{16}8b-4[8:1],8,{8}8,{16}7b-3[8:1],7,{8}7,7bxh[16:1],
{16}1,2,1,8,1,2,1,8,1,2,1,8,{32}8b/1,7,6,5,4,3,1/2b,3,
4,5,6,7,8b/1h,2,3,4,5,6,8/7b,6,5,4,3,2,1b/8,2,3,4,5,6,7,8,{4}1b-5b[8:1],
,1-5[8:1],,2b<2p2b[1:3]`6>6p6[1:3],
{1},,,{4},{8},{16}4/8,
5/1,{2}6-3[4:13]/2-7[4:13],
{1},,,{4},{24}1,
8,1,8,
E
