&title=Paradisus-Paradoxum
&artist=MYTH & ROID
&first=0
&des=暁
&lv_5=14
&inote_1=
&inote_5=(201)
{1},
{8}2h[4:5]/6h[4:3],,,,,,,,
5h[4:3],,,,3h[4:3],,,,
4h[4:3],,,,5h[4:3],,,,
6h[4:3],,,,4h[4:1],,,,
7h[4:3]/3h[4:3],,,,,,,46,
5w1b[4:2],,,,,,,,
3x/7x,A6/E6/B5/B4,,17,6x/2x,A3/E4/B4/B5,,
2h[8:1]/8h[8:1],,37,4>1b[8:1]/8<5b[8:1],,48,,E6/B5/B4/B3/E3,,
1x/7x,2-6[8:1],8,2/1>4[8:1],,5-8b[8:1],,7V51[4:1],
,2,2,,3-5[8:1]/8-6[8:1],,,,
8x/2x,7-3[8:1],1,7/8<5[8:1],,4-1b[8:1],,2>5[8:1],
,7,7,,{16}4,3,2,1,8-4[8:1],7,6,5,
4-7-5[8:3]`C,,,,3,,,,2,,,,1-5[8:1],,,,
5-2-4[8:3]`C,,,,6,,,,7,,,,8>8[2:1],,,,
4V68V24b[2:1],,,,,,,,,,,,,,C,,
,,,,B6/B5f/B4,,,,,,A8/D1/A1f/D2/A2/D8/D3,,,,,,
3b/7b,,,,6,,4V62[8:2],,,,4,,8h[4:1],,,,
1-3[8:1],,7V14b[16:3],,1,,7V16[16:3],,,,1x,,5,,,,
3b/8b,,,,2,,1<6[8:1],,,,1,,4>1[8:1],,,,
8,,7,,6,,5<8[8:1],,1,,2,,3,,4,,
1/5-2[8:1],,,,7,,7,,5-8[8:1]/1,,,,3,,3,,
4-2[8:1],,2-8[8:1],,4,,6,,7,,7V53b[4:1],,,,1h[8:4],,
,,,,,,{48}E4,E3,E2,E1,E8,E7,E6,,,,,,,,,,,,{16}C,,,,
1x/2,,3x/4,,5x/6,,7x/8,,B1/E1,,B5/E5,,B3/E3,,B7/E7,,
4b>5[8:16]/8x,,,,,,,,,,,,,,,,
,,,,,,,,,,,,,,,,
4>5[8:16]*>5[8:16],,,,,,,,,,,,,,,,
,,,,,,,,,,,,,,,,
4>5b[8:16],,,,,,,,,,,,,,,,
,,,,,,,,,,,,4,,4,,
4-8[8:13],,,,,,,,,,,,,,,,
A3,E4,E5,A5,A2,B2,B6,A6,A1,E1,E8,A7,C,,,,
3x/5x-3[8:1],,,,2,,2-5-3b[8:2],,,,1,,8,,,,
7-4[8:1],,,,1,,1V74b[8:2],,,,5,,6,,,,
8-3-5[8:2],,,,2,,2-6[8:1],,,,7,,7,,,,
8-4[8:1],,,,3,,3,,3,5,4,6,5,6,5,6,
5-3[8:1],,,,7,,7V53b[8:2],,,,2,,2,,,,
1-5[8:1],,,,7,,7V15b[8:2],,,,4,,4,,,,
2b,4,3,4,1b,5,4,5,8b,6,5,6,8b,7,1,6,
2b/5b,,2b/5b,,2b-5[8:1]/5b-8[8:1],,,,5w1[8:1],,,,,,,,
7<3[4:1],,,,3>7[4:1],,,,7<3[4:1],,,,3>7[4:1],,,,
7<7[2:1],,,,B4/E5,,,,7,,,,B2/E3,,,,
5-1[8:1]/6,,,,7,,,,5-1[8:1]/4,,,,3,,,,
2,,3,,{12}4/5x,6x,7x,{16}3,2,1,8,7,6,5,4,
1-5[8:1]/3,,,,2,,,,1-5[8:1]/7,,,,8,,,,
1-6[8:1]/3,,,,2,,,,1-4[8:1]/7,,,,8,,,,
1-5[8:1],,2-4[8:1],,1,,2,,8-4[8:1],,1-5[8:1],,8,,1,,
7-5[8:1],,8-4[8:1],,7-3[8:1],,8-2[8:1],,7-5[8:1],,8-4[8:1],,7,,8,,
7,,2b/6b,,,,1x,,28,,3b/7b,,,,4hx[8:1]/6hx[8:1],,
,,3/7,,1b-4[8:1]/5b-8[8:1],,,,1<6[8:1]/5>2[8:1],,,,1-5[8:1]/5,,,,
15,,7-4[8:1],,3,,7/2-7[8:1],,,,2/5-2[8:1],,,,8-5[8:1]/5,,,,3,,3,,,,
1>4[8:1]/4<7[8:1],,,,1/4-8[8:1],,,,
4/8,,,,17,,2-5[8:1]/6-1[8:1],,,,26,,,,4>1[8:1]/8<5[8:1],,
,,48,,,,8bh[8:2],,4,3,2,1,8,7,6,5,
1-3[8:1],,4-8-6b[8:2],,1,,4,,5w1[8:1],,,,5,,,,
8-6[8:1],,5-1-3b[8:2],,8,,5,,4w8[8:1],,,,4,,,,
2b/6b,,3b/7b,,2b/6b,,3b/7b,,2b/6b,,3b/7b,,5bh[8:1]/1bh[8:1],,,,
2,4,3,5,4,6,5,6,4,5,3,4,2,,,,
15,,2-5[8:1],,6,,2/7-2[8:1],,,,7/4-7[8:1],,,,1-4[8:1]/4,,,,6,,6,,,,
8<5[8:1]/5>2[8:1],,,,8/5-1[8:1],,,,
5/1,,,,82,,7-4[8:1]/3-8[8:1],,,,73,,,,5<8[8:1]/1>4[8:1],,
,,51,,,,1bh[8:2],,5,6,7,8,1,2,3,4,
56,,,,4-1[8:1]/7<5[8:1],,,,B6/C/B2,,,,,,,,
43,,,,5-8[8:1]/2>4[8:1],,,,B3/C/B7,,,,,,,,
1bh[4:3]/5bh[4:3],,,,,,,,,,,,,,A4/D4/A3/A7/D8/A8,,
,,,,B1/B2/E2/B6/B5/E6,,,,,,C,,,,,,
6b/2b,,,,3,,5V37[8:2],,,,5,,1h[4:1],,,,
8-6[8:1],,2V85b[16:3],,8,,2V83[16:3],,,,8x,,4,,,,
6b/1b,,,,7,,8>3[8:1],,,,8,,5<8[8:1],,,,
1,,2,,3,,4>1[8:1],,8,,7,,6,,5,,
8/4-7[8:1],,4,,1-4[8:1],,1,,8h[8:4],,,,,,6h[8:1],,
,,57,,46,,35,,2>4-6[8:1]/4-8[8:1],,24,,,,,,
5/1-4[8:1],,1,,6-1[8:1],,6,,5h[8:4],,,,,,8h[8:1],,
,,74,,36,,25,,1>5[16:3]/4p6[16:3],,41,,,,,,
