&title=Bling-Bang-Bang-Born
&artist=Creepy Nuts
&first=0.387
&des=Kurage
&lv_5=13+
&inote_5=(157)
{4}6p3[8:4],,,,
{8}
2/6h[8:1],,2-6[8:1]/4h[8:1],,5-8[8:1],5,1,2,
7/3h[8:1],,7-3[8:1]/5h[8:1],,4-1[8:1],4,8,7,
{16}
26,,3,4,3,4,3,,6,5,,5,7,,18,,
2,4,3,,5,4,6,,7-3[8:1],8,7,,1-6[8:1]*-4[8:1],,1,,
,,,,37,,6,,3/5v3[8:1],,2,,3-1[12:1]/5-7[12:1],,,,
,,,,62,,3,,6v8[8:1]/4v2[8:1],,7,,,,,,
7,5,6,,4,5,3,,2-7[8:1],1,2,,5<4[8:6],,5h[8:7],,
{4},,,,
{16}
34,,,3,4,,2h[8:1],,4,,3,,5,,4,,
65,,,6,5,,7h[8:1],,5,,6,,4,,5,,
45,,3h[8:1],,6,5,7,,45,,6h[8:1],,3,4,2,,
2<7[8:1]/7,,,,6q2[8:1],,,,4qq5[32:9],,,,8,,,,
6V47[8:2],,,,3,,1,,1-5[8:1],,,,8,,7,,
6-4[12:1]/4,,,2,6,,1,,1>4[8:1]*<6[8:1]/5,,,,1,,,,
3V52[8:2],,,,6,,8,,8-4[8:1],,,,1,,2,,
3-5[12:1]/5,,,7,3,,6,,36,,3,4,2h[8:1],,4,3,
6h[8:1],,8,7,8,7,2,,34,,7h[8:1],,5,6,5,7,
3h[8:1],,1,2,1,2,7,,56,,2h[8:1],,4,3,4,2,
8h[8:1],,5,7,5,7,3,,64,,7h[8:1],,5,6,5,7,
1h[8:1],,4,2,4,2,6,,35,,2-6[8:1],,3,1,1,,
8b<5[8:1],,8b>3[8:1],,8b-4[8:1],,8b,,8b,,,,2h[256:1]/6,,5,,
34,,,4,2h[256:1],,6h[8:1],,5,,6,,2h[256:1]/6,,7,1,
8h[8:1],,6,6h[8:1],,5,5h[8:1],,4,4h[8:1],,7,3,,2,8,
1h[8:1],,3,3h[8:1],,4,4h[8:1],,5,,2b/6b,,2b/6b,,3,5,
1h[8:1],,7,8,7,6,7,,65,,4,8,2h[8:1],,6,4,
8h[8:1],,2,1,2,3,2,,34,,7h[8:1],,4,5,4,5,
2h[8:1],,6,5,6,8,6,,17,,6,2,4,3,6,5,
7h[8:1],,3,4,3,1,3,,82,,5b,,5b,,46,,
2h[8:1],,7,8,7,5,7,,46,,5,3,7-3[8:1],8,8,,
1b>4[8:1],,1b<6[8:1],,1b-5[8:1],,1b,,1b,,,,37,,4,,
8/7h[8:1],,5,6,1,,3,,1/2h[8:1],,4,3,8,,6,,
45,,3,8,1-5[8:1],6,3,,1b/5bw1[8:1],,,,,,,,
8-5[8:1],,,,5-8[8:1],,,,8-5[8:1],,,,5-8[8:1],,,,
8-3[8:1],,,,3-6[8:1]*-8[8:1],,,,,,,,7>3[8:1],,3v5[32:3],,
,,,,4v1[8:1]*v7[8:1],,3,,,,,,2-5[8:1]/6v1[8:1],,,,
2/6>8[8:2],,,,8,,,,4w8[8:1],,,,,,,,
1-4[8:1],,,,4-1[8:1],,,,1-4[8:1],,,,4-1[8:1],,,,
1-6[8:1],,,,6-3[8:1]*-1[8:1],,,,,,,,2v5[8:1],,5V31[32:5],,
,,,,8v5[32:5]*V64[32:5],,7,,8bv3[32:5]*V24[32:5],,,,8bw4[32:5],,,,
8b,,,,,,,,,,3,,2,,1,,
{32}78,6,{16}5h[8:1],,2,4,,1h[8:1]/5,,{32}6,5,{16}4h[8:1],,2,3,,2h[8:1]/1,,
{32}8,7,{16}6h[8:1],,4,5,,4h[8:1]/3,,3q8[8:1],,1h[256:1],,1b,,,,
{32}21,3,{16}4h[8:1],,7,5,,8h[8:1]/4,,{32}3,4,{16}5h[8:1],,7,6,,7h[8:1]/8,,
{32}1,2,{16}3h[8:1],,5,4,,5h[8:1]/6,,6p1[8:1],,8h[256:1],,8b,,,,
{32}78,6,{16}5h[8:1],,2,4,,1h[8:1]/5,,{32}6,5,{16}4h[8:1],,2,3,,2h[8:1]/1,,
{32}8,7,{16}6h[8:1],,4,5,,43,,26,,,,7v4[8:1],,4V68[32:5],,
,,,,1v4[32:5]*V35[32:5],,2,,1bv6[32:5]*V75[32:5],,,,1bw5[32:5],,,,
1b,,,,37,,4,,56,,8,,8,,,,
4-1[8:1]/7-3[8:1],,,,47,,,,8,8h[8:1],,2h[8:1],,4,3,4,
5-1[8:1],,6,,5/7-4[8:1],,8,,37,,1b,,1b,,,,
2-6[8:1]/8-3[8:1],,,,28,,,,5,5h[8:1],,3h[8:1],,1,2,,
8-3[8:1]/1,,6,,5-1[8:1]/8,,7,,57,,6b,,6b,,,,
5-8[8:1]/2-6[8:1],,,,52,,,,1,1h[8:1],,7h[8:1],,5,6,5,
4-8[8:1],,3,,4/2-5[8:1],,1,,62,,8b,,8b,,,,
7-3[8:1]/1-6[8:1],,,,71,,,,4,4h[8:1],,6h[8:1],,8,7,,
1-6[8:1]/8,,3,,4-8[8:1]/1,,2,,42,,3b,,3b,,7/3s7[8:11],,
