&title=花となれ
&artist=雄之助 feat.可不(KAFU)
&first=0
&des=MYOU
&lv_6=12+
&inote_6=(130)
{1},
{16}2h[8:1],,,,3h[8:1]/5h[8:1],,,,4,4,,5,3,6,2>4[8:1],,
{16},,8,,7<5[8:1],7,,,1,,2>4[8:1],2,,,8,,
{16}7h[8:1],,,,6h[8:1]/4h[8:1],,,,5,5,,4,6,3,7<5[8:1],,
{16},,1,,2,4,2,
4,3,,6,5,,3,5,4,
{8}6h[8:1],5-2[8:1],6,7h[4:1],,3,4,5-2[8:1]/6,,7-4[8:1],,2-5[8:1],,7-4[8:1],,4q6[8:3],
{8}3,,2,,3,,46,4/6h[4:1],
{8},4,35,2h[4:1],,4,35,6,
{8}7-4[8:1]/5,4,3,2h[4:1],,5,36,7-4[8:1]/4,,5-2[8:1],,7-4[8:1],,2-5[8:1],,5p3[8:3],
{8}6,,7,7h[4:1],,,6,2h[4:1]/6,,4h[4:1],,5,5w1[8:1],,,,
{16}2b/8b-5[8:1],,,3,8,,2,,8-5[8:1],,,3,8,,2,,
{16}8<5[8:1],,,38,,2,2,,8p4[8:1]*-5[8:1],,,,8,,,,
{16}7/1-4[8:1],,,6,1,,7,,1>4[8:1],,,16,,7,7,,
{16}1-4[8:1],,6,6,1,,7,,1-4[8:1]*q5[8:1],,,,1,,,,
{16}3b/8b-5[8:1],,,2,8,,3,,2-5[8:1]/6,,,8,2,,6,,
{16}4/7<4[8:1],,2,2,,1,1,,2-5[8:1]/4-7[8:1],,,,42,,,,
{8}8-5[8:1]/4,,28,,5/1-4[8:1],,17,8h[4:1],,2,73,6,5/4w8[8:1],,,,
{2}4/6p4[2:1],3,2q5[2:1]/5,6,4/7pp4[2:1],3,1v3[4:1]/6>7[2:1],,
{2}4h[4:1]/6h[4:1],2h[4:1]/5h[4:1],5h[4:1]/7h[4:1],2h[4:1]/6h[4:1],
{16}1/5pp6[4:1],,,2,,,4,,5qq4[4:1],,,8,,,6,,{4}5pp8[8:3]*qq2[8:3],,,1b-5[8:1],
{16}8<5[8:1]/1>4[8:1],,,,18,,,,27,,45,,1/8-4[8:1],,,,48,,2,,35,,7,,56,,2,4,3,,47,,
{4}8p4[8:1],8/3h[4:1],1q5[8:1],6h[4:1]/1,
{8}4b>5[2:1],6h[96:1],7h[96:1],8h[96:1],2h[96:1],3h[96:1],4h[96:1],,
{16}3/8-5[8:1],,,8,5,,1,,2-5[8:1]/4,,,2,5,,7,,{4}4/8<5[8:1],4<7[8:1],2-6[8:1],8w4[8:1],
{8},,6h[8:1]/2h[8:1],,8h[8:1]/4h[8:1],,7/3qq8[2:1],5pp8[8:3]/2,{4},,,{16}8-4[8:1],2,7,1,
{16}8>3[8:1]*<5[8:1],,,,8,,,,72,,54,,8/1-5[8:1],,,,51,,7,,64,,1,,43,,8,5,7,,52,,
{4}1>5[8:1],1/6h[4:1],8<4[8:1],3h[4:1]/8,
{8}5b<4[2:1],3h[96:1],2h[96:1],1h[96:1],7h[96:1],6h[96:1],5h[96:1],,
{16}6/1-4[8:1],,,1,4,,8,,7-4[8:1]/5,,,7,4,,2,,{4}5/1>4[8:1],1/5>2[8:1],5/8w4[8:1],8,
{4}2-5[8:1]/4v7[8:1],24,5v2[8:1]/7-4[8:1],57,{16}24,,3,5h[8:1],,,6,4h[8:1],,,3,5,,6,5,4,
{16}3b-5[8:1]/6b-4[8:1],,,,36,,,,27,,,35,,2,8,,17,,46,,7,1,8,,34,,2,8,,,36,,
{16}3-5[8:1]/6-4[8:1],,,,36,,,,18,,2,4,,7,5,,{32}3,,,3,8,,,,6,,,6,1,,,,
2,3,,,7,6,,,3,4,,,6,5h[32:11],,,
{4}2b,1,6/4h[4:1],8,
{4}2/5h[4:1],8,8-4[8:1]/4h[4:1],8,
{4}3>1[8:1]/5,5,3>1[8:1]/5,5,
{8}6<8[8:1]/4,,4,,6<8[8:1]/4,6,4>2[8:1],4,
{8}5h[4:1],,1,,6/4h[4:1],,8,,
{8}2/5h[4:1],,8,,7<4[8:1]/4,,4,3,
{8}3,,3,,3,,3/5<7[8:1],5,
{4}3,4h[8:1],4h[8:1]/6h[8:1],5h[8:1]/7h[8:1],
{8}8b<5[8:1],,,3v1[8:1],3,,,5v7[8:1],5,,,1>4[8:1],1,,5,7,
{4}8-5[8:1]/5,83,1-4[8:1]/4,16,8<4[4:1]/5,4>6[4:1],8,4qq2[8:1]*pp6[8:1],
{8}4b,,,3v1[8:1],35,,,7v5[8:1],73,,,4>1[8:1],46,,,6,
{8}25,3,45,6,5v2[8:1]/7,,8,6,35,4,56,7,1/8w4[8:1],,8,,
{2}5/3q5[2:1],6,7p4[2:1]/4,3,5/2qq5[2:1],6,8v6[4:1]/3<2[2:1],,
{4}3>1[8:1]/5,35,6<8[8:1]/4,64,4>1[8:1]/5,4/5<8[8:1],45,{24}18,,,8,7,6,
{16}3,3,5,5,1,1,7,7,
3,5,1,7,4,6,2,8,{4}1w5[4:1],,,1b-4[16:1]/7b-4[16:1],
{8}1b/7b,,,,,,,,45,3,46,7,35,1,5b/6b,8b,
{4}1b-6[8:1]/6b,1-4[8:1]/2,1<6[8:1]/7,1v4[8:1]/3,
{8}1b/4b>5[2:1],5h[96:1],6h[96:1],7h[96:1],2h[96:1],3h[96:1],4h[96:1],,
{16}8<5[8:1]/2,,,8,4,,2,,4/1>4[8:1],,,1,6,,8,,{8}57,6,14,2,8<5[8:1]/5>2[8:1],,5/8w4[8:1],,
{8},,73,6,51,2,83,74,{16}65,,4,5h[8:1],,,3,4h[8:1],,,2,5,1-5[8:1],7,2,8,
{16}1<6[8:1]*>4[8:1],,,,1,,,,27,,45,,1/8-4[8:1],,,,48,,2,,35,,8,,56,,1,4,2,,47,,
{4}8-3[8:1]/5,8p4[8:1]/7,8>3[8:1]/2,8v5[8:1]/6,
{8}8b/5b<4[2:1],4h[96:1],3h[96:1],2h[96:1],7h[96:1],6h[96:1],5h[96:1],,
{16}1q5[8:1]/7,,,1,5,,7,,4/8p4[8:1],,,8,3,,1,,{8}42,3,85,7,1>4[8:1]/4<7[8:1],,41,,
{4}5v2[8:1]/8-5[8:1],58,4v7[8:1]/1>4[8:1],41,
{16}56,,3,5h[8:1],,,6,4h[8:1],,,3>1[16:1],5,,7,6,5,
