&title=プロローグは明日色
&artist=ミルキィホームズ
&first=-0.03
&des=小林 オペラ
&lv_5=13
&inote_5=(173)
{1}
(170)
{1},
{8},,,,,,,{24}E3,B3,B4,
{8}E8,A1,B6,B2,,E4,E5,E6,
{8}A7,B6,B3,A2,,,,E1,
{8}E7,E6,E4,E3,,B3,B7,1bw5b[173#2:1],
{1},
(173)
{8}7h[4:1]/1,,3h[4:1],,4,,7/1,6h[4:1]/2,
{8},3,3h[4:1],,5h[4:1],,,{16}5x,4x,
{8}7xh[8:3],3,2,1-4[8:1],,7-4[8:1],,3xh[2:1],
{8},4,5,6h[2:1],,,,{16}4,3,
{8}2h[2:1],,,{16}7,6,{8}5h[4:1],,4,8/2h[8:7],
{8},,,{16}6,5,{8}4h[4:1],,,{16}5,3,
{8}5,1,8/2,3/7b-4[8:1],,1b-5[8:1],,5b,
{8},8,7/3,6pp5[8:3]/4qq5[8:3],,4b/6b,,,
{8},,6h[8:3]/2,3,4,5<8[8:1],,1h[4:1],
{8},7,2h[2:1],6,4h[4:1],,,,
{8}7h[4:1],,5h[4:1],,4h[4:1],,2h[4:1],,
{8}6pp4[2:1],4,4,2-5[8:1],,A2,,,
{8},2h[8:1],5,6h[4:1],4,3v1[8:1],,8,
{8},7<4[8:1],,2,,3,,{16}2,5,
{8}2>1[2:1],,,,1>4[4:1],,,,
{8}6h[8:3],3,2,1V75-3[4:1],,,,,
{8},,3h[8:3]/7,6,5,4>1[8:1],,8/4,
{8},2x,7-3-5[4:1],3,4h[4:1],,,,
{8}2h[4:1],,4h[4:1],,5h[4:1],,6h[4:1],,
{8}2-5[8:1],7-4[8:1],2,7>5[4:1],,E3/B2/B3,,,
{8},7h[4:1],,4h[4:1],5,6v8[8:1],,1/6,
{8},2>5[8:1],,2/7,,8,,{16}5,4,
{8}7x/3x,6,5,4b-7[8:1]/2,,2b<6[8:1],,5bh[8:7],
{8},E7,B5,B4,E3,,A8/A1/E1/D1,,
{8}3h[8:3],,,5,3,5,,4/7,
{8},6,4,5,{16}E3,B3,{8}B4,6/1,,
{8}8h[4:1]/2b,,4,3h[4:1],,5h[4:1],,1s5[4:1],
{8},8,7,6h[8:3],,{16}E6,E5,{8}E4,,
{8}1,2-6[8:1],6,5,,7-3[8:1],3,4,
{8},1-5[8:1],5,7,,8<5[8:1],4,1bh[1:1],
{8},4x,3x,2x,8x,7x,6x,5x,
{8}2b/7b,2b/7b,4b/5b,3b-8b[8:1]/6b,,{32}A7,E7,E6,E5,A4,,,,{8},
{8}2b-4[8:1],7V51[6:1],2,7,,5,4/8,3,
{8}7>2[8:1]/2,2v4[8:1],3,4,,B1/B2/E2,B1/B2/E2/7b,5x,
{8}4x-2[8:1],5x-1-7[6:1],4,5,,2,6/3,4,
{8}6,6/5,3,3/4,{16}2-5[8:1],8,,8,{8}2,6,
{8}7-5[8:1],2V48[6:1],7,2,,4,5/1,6,
{8}7-3[8:1]/2,8-2[8:1],7,8,,B6/E6/B5,B6/E6/B5/2b,1x,
{8}7x/3x,5-1[8:1],6/4,5b,,2-6[8:1],1/3,2b,
{8},8,7,6,5,4/8,7/3>5[4:1],2/6,
{8}3/5,,,4,5,4V28-6[16:5]/6h[4:1],,4,
{8},,,,3h[4:1],,4,7/1,
{8},2-5[8:1]/8,4/6pp1[16:5],2,6,,5,3b<6b[8:1],
{8},3b/6b,,{16}7,8,6,,4<2[4:1],5,{8}3,4b/2b,
{8},,4h[4:1],,5V31-7[16:5],,5/7,8h[4:1],
{8},,4x/6x,,5V74[4:1],,4-8[8:1],,
{8}3,,2x/7x,6h[4:1]/5b,,3b,2,1b/5bqq6[16:5],
{8},,,,{16}1,2,3,4,{24}1x,2x,3x,4x,5x,6x,
{8}7xb/1b-5[8:1],,7-4[8:1],,3<6[8:1],,7,7V16[4:1],
{8},5,2h[4:1],,5h[4:1],B1/B2/E2,B1/B2/E2,{16}4,5,
{8}2,3q5[4:1]/8,7,5<1[4:1],,1>4[16:3],,5,
{8},8h[8:1],5,7h[8:1],1,6h[8:1],3,{16}1/5,2,
{8}3h[8:3],,,{16}4,5/2,{8}6h[4:1]/1,,4,8p6[4:1]/1,
{8},,,{16}2,3,{8}4h[4:1],E8/B7/B8,E8/B7/B8,{16}5,4,
{8}7,8-4[8:1]/2-4[8:1],3,2-6[8:1]/8-6[8:1],,2V48[4:1]/8,,8/2,
{8},5,6/1,6h[8:1]/1h[8:1],,{16}8,7,1,6,2,5,
{8}3V52[4:1],,5,7-3[8:1],,8-4[8:1],,1-5[8:1],
{8},4x,3x,8x/2xh[8:3],,,,{16}5,2,
{8}7V15[4:1],,1,3-7[8:1],,4-8[8:1],,5-1[8:1],
{8},7x,6x,5xh[2:1]/2xh[2:1],,,,,
{8}4b/7b,6bV84b[6:1],,1b/6b,3bV15b[6:1],,8b/3b,6bh[4:1],
{8},4,8,5,4/6,1z5b[8:9]/8s4b[8:9],5/3,1b/8b,
{8},,,,,,,,
{8},,,,,,,,
