&title=Dingdong Bird
&artist=Roselia & @社恐小燐子
&first=0
&des=我是来结束这一切的
&clock_count=4
&lv_5=18+
&lv_6=18+
&inote_5=(150)
(300)
{32}
,,,,
,,,,
,,,,
,,,,
,,,,
,,,,
,,,,
,,,,
,,,,
,,,,
,,,,
,,,,
,,,,
,,,,
,,,,
(150)
{32},,,,
,,,,
,,,,
,,,,
{32},,,,
,,,,
,,,,
,,3/5,,
{32},,,,
,,,,
,,,,
,4,,,
{32},,,,
,,,,
,,,,
4/6,,,,
{32},,,,
,,,,
,,,5,
,,,,
{32},,,,
,,,,
,,3h[32:15]/5,,
,,,,
{32},,,,
,,,,
,C,,,
,,,,
{32},,,,
,,,,
4/6h[32:15],,,,
,,,,
{32},,,,
,,,C,
,,,,
,,,,
{32},,,,
,,3h[32:15]/4,,
,,,,
,,,,
{32},,,,
,2,,,
,,,,
,,,,
{32},,,,
6h[32:15]/5,,,,
,,,,
,,,,
{32},,,7,
,,,,
,,,,
,,,,
{32},,1/7,,
,,,,
,,,,
,,,,
{32},8,,,
,,,,
,,,,
,,,,
{32}2/8,,,,
,,,,
,,,,
,,,1,
{32},,,,
,,,,
,,,,
,,6h[32:15],,
{32},,,,
,,,,
,,,,
,5h[32:15],,,
{32},,,,
,,,,
,,,,
4h[32:15],,,,
{32},,,,
,,,,
,,,3,
,,,,
{32},,,,
,,,,
,,3h[32:15],,
,,,,
{32},,,,
,,,,
,4h[32:15],,,
,,,,
{32},,,,
,,,,
5h[32:15],,,,
,,,,
{32},,,,
,,,6,
,,,,
,,,,
{32},,,,
,,3/6,,
,,,,
,,,,
{32},,,,
,,,,
,,,,
,,,,
{32},,,,
2/7,,,,
,,,,
,,,,
{32},,,,
,,,,
,,,,
,,,,
{32},,4/6,,
,,,,
,,,,
,,,,
{32},5,,,
,,,,
,,,,
,,,,
{32},3/5,,,
,,,,
,,,,
,,,,
{32}4,,,,
,,,,
,4/5,,,
,,,
1p4q1p4q1p4q1p4q1p4[6:7]/
8q5p8q5p8q5p8q5p8q5[6:7],
{32},,,,
,,,,
,,,,
,,,,
{32},,,,
,,,,
,,,,
,,,,
{32},,,,
,,,,
,,,,
,,,,
{32},,,,
,,E8/B7/B6/E6/B8/B1/B2/B3/B4/B5,,
,,,,
,,,,
{32}Ch[4:1],,,,
,,,,
{128},,,,
4pp1-4-1-4-1-4-1-4-1-4-1-4-1-4-1-4-1-4-1-4-1-4-1-4-1-4-1-4-1-4-1-4-1-4-1-4-1<8b[64:210],
5qq8-5-8-5-8-5-8-5-8-5-8-5-8-5-8-5-8-5-8-5-8-5-8-5-8-5-8-5-8-5-8-5-8-5-8-5-8>1[64:210],,,
{64},,,,
{32},,,,
{16},,,,
,,,,
,,,,
,,,,
{16},,,,
,,,,
,,,,
,,,,
{16},,,,
,,,,
,,,,
,,,,
{32},,,,
,,,,
,,
{96}E1,A1/A8,D1f,,
,,,,
,,,,
,,,,
,,
{8},,,,
,,,,
,,,,
,,,,
{4},4b,4b,4b,
{16}4b,,5,4,
3/6,,1<2b[2:1]/8,,
,,5h[2:1]/A1f,,
{8},,,,
{64}1b/8b,7,6,,
,,,,
,,,,
,,,,
{64}1b/7b,6,5,,
,,,,
,,,,
,,,,
{64}1b/6b,5,4,,
,,,,
,,,,
,,,,
{64}5b/1b,2,3,,
,,,,
,,,,
,,,,
{8}4/5,1/8>6b[2:1],,3h[2:1]/A8f,
,,,,
{64}1b/8b,2,3,,
,,,,
,,,,
,,,,
{64}8b/2b,3,4,,
,,,,
,,,,
,,,,
{64}8b/3b,4,5,,
,,,,
,,,,
,,,,
{64}8b/4b,7,6,,
,,,,
,,,,
,,,,
{16}1b/8b,,{32}1/8,1/8,2/7,3/6,
{16}4/5,,,1h[6:1]/8h[6:1],
,,,{32}1/8,2/7,
{16}3/6,,{16}3b/6b,,
,,{32},A4/A5/D4/D6,A3/A6/D3/D7,A2/A7/D2/D8,
A1/A8,,,,
,,{64}8b,7,6,5,
{32},,,,
{64},,8b,7,
6,5,,,
{32},,,,
{64}8b,7,6,5,
,,,,
{32},,,,
4/5,4/5,3/6,2/7,
1/8,,,,
,,,,
{16}4h[6:1]/7h[6:1],,,{32}3/6,2/5,
1/4,,,,{16}3b/7b,,
,,1,,
{32}8,,,,
,,,4pp1[6:1]/6qq1[6:1],
{16},,4b/6b,4b/6b,
{16},,,,
4,5,3,6,
2,7,1,8,
2,7,3,8,
{16}4,7,5,6,
4,7,3,6,
2,5,1,6,
8,7,,,
{16},,1/8,1/8,
1h[8:1]/8h[8:1],,,,
,,3h[8:1],,
5h[8:1],,7h[8:1],,
{16}1<2b[2:1],,2,2,
E1,E8,E7,E6,
E5,E4,E3,E2,
,,,,
{16}3h[16:1],,7h[16:1],,
2h[16:1],,6h[16:1],,
3h[16:1],,7h[16:1],,
2h[16:1],,6h[16:1],,
{16}1h[16:1],,5h[16:1],,
8h[16:1],,4h[16:1],,
7h[16:1],,3h[16:1],,
7h[16:1],,3h[16:1],,
{16}7h[16:1],,3h[16:1],,
{32}7/3,4/8,1/5,2/6,
3/7,,,,
{16},,,,
1,,1,,
{16}1,,{32}1bx,8bx,7bx,6bx,
5bx,4bx,3bx,2bx,
1bx,8bx,7bx,6bx,
5bx,4bx,3bx,2bx,
1bx,8bx,7bx,6bx,
5bx,4bx,3bx,2bx,
,,,,
{16},,5h[8:3],,
,,4,,
4h[4:1],,,,
3h[4:1],,,,
{16}1>4qq5[4:3],,,,
,,,,
,,,,
,,,,
{16},6,5,6h[16:5],
,,,,
5h[4:1],,,,
7h[4:1],,,,
{16}8-5>1-4[4:3],,,,
,,,,
,,,,
,,,,
{16},,5,4,
5h[4:1],,,,
4h[4:1],,,,
1h[4:1],,,,
{16}8<5p4>1[4:3],,,,
,,,,
,,,,
,,,,
{16}4h[4:1],,,,
5h[16:3],,,6h[16:3],
,,7,,
1/8,,,,
{16}2>4qq1[4:3]/7<5pp8[4:3],,,,
2/7,,,,
,,,,
,,,,
{16},,,,
,3bh/7bh,,1bh/5bh,
,,,{48}5b,4,
3,2,,,
,,,5b-1b[16:1],6,7,8,,,
{16},,5b,,
,3bh/5bh,,1bh/7bh,
,,,2bh/8bh,
,,4bq1[16:1]/6bp1[16:1],,
{16},,4b/6b,,
,2bh/6bh,,4bh/8bh,
,,,{48}8b,7,6,
5,,,,,,8b-4b[16:1],1,2,3,,,
{16},,8b,,
5,
5,
3,
7,
7,
2,
4,
6,
8,
3,
5,
1,
5,
7,
3,
5,
7,
1,
6,
8,
3,
5,
2,
5,
3,
7,
5,
2,
4,
2,
6,
2,
6,
8,
4,
6,
8,
3,
7,
3,
7,
5,
1,
4,
1<1<1b[2:1],
6,
1,
6,
{64}A1,D1,A8,D8,
A7,D7,A6,D6,
A5,D5,A4,D4,
A3,D3,A2,D2,
A1,D1,A8,D8,
A7,D7,A6,D6,
A5,D5,A4,D4,
A3,D3,A2,D2,
{16}A1f,,,,
2,
2,
5,
7,
7,
4,
6,
8,
3,
6,
8,
2,
4,
2,
5,
2,
5,
7,
2,
5,
7,
4,
7,
4,
7,
2,
7,
2,
7,
4,
6,
4,
6,
8,
5,
1,
5,
1,
4,
1,
4,
1,
6,
1,
6,
3,
6,
3,
8,
2,
2,
5,
5,
8,
3,
5,
7,
7,
4,
7,
4,
6,
4,
6,
8,
5,
2,
5,
2,
4,
2,
4,
7,
2,
7,
2,
7,
5,
1,
5,
1,
6,
1,
6,
3,
8,
3,
8,
3,
6,
3,
6,
8,
5,
8,
5,
8,
4,
6,
6,
3,
5,
5,
2,
5,
2,
5,
8,
4,
8,
4,
7,
7,
2,
7,
2,
6-2<3[4:1],,,,3-1v8-6[4:1]*-1v8-6[4:1],,,,,,,,,
4,
7,
4,
6,
4,
6,
2,
6,
2,
6,
4,
1,
4,
1,
6,
1,
6,
3,
6,
3,
8,
3,
,
5p8[8:1]/4q1[8:1]
,,1/8,,
4/5,,,,
{16}1,8,2,7,
3,6,4,5,
3,6,2,7,
1h[8:1]/8h[8:1],,,,
{16}1-4<5-8[2:1]/8-5>4-1[2:1],,,,
,,,,
,,,,
,,,,
{16}6,5,6,5,
6,3,6,5,
6,2,6,5,
6,1,6,5,
{16}6-3<4-1>2-7>8-5<6<6b[4:3],,,,
,,,,
,,,,
,,,,
{16},,1,,
1,,{48}1b,2,3,4,5,6,7,8,
1,2,3,4,
5,6,7,8,
,,{16}1/8,,,,
{16}1b/8b,,,,
{64}1b,2b,3b,4b,
5b,6b,7b,8b,
1b,2b,3b,4b,
5b,6b,7b,8b,
{64}1b,2b,3b,4b,
5b,6b,7b,8b,
1b,2b,3b,4b,
5b,6b,7b,8b,
1b,2b,3b,4b,
5b,6b,7b,8b,
1b,2b,3b,4b,
5b,6b,7b,8b,
{64}1b,2b,3b,4b,
5b,6b,7b,8b,
1b,2b,3b,4b,
5b,6b,7b,8b,
1b,2b,3b,4b,
5b,6b,7b,8b,
1b,2b,3b,4b,
5b,6b,7b,8b,
{64}1b,2b,3b,4b,
5b,6b,7b,8b,
1b,2b,3b,4b,
5b,6b,7b,8b,
1b,2b,3b,4b,
5b,6b,7b,8b,
1b,2b,3b,4b,
5b,6b,7b,8b,
{64}1b,2b,3b,4b,
5b,6b,7b,8b,
1b,2b,3b,4b,
5b,6b,7b,8b,
1b,2b,3b,4b,
5b,6b,7b,8b,
1b,2b,3b,4b,
5b,6b,7b,8b,
{64}1b,2b,3b,4b,
5b,6b,7b,8b,
1b,2b,3b,4b,
5b,6b,7b,8b,
1b,2b,3b,4b,
5b,6b,7b,8b,
1b,2b,3b,4b,
5b,6b,7b,8b,
{16}1b/Cf,,,,
{48}1b/8b,2/7,3/6,4/5,
,,,,
,,,,
1b/2b,3/8,4/7,6/5,
,,,,
,,,,
7b/8b,1/6,2/5,4/3,
,,,,
,,,,
1b/8b,2/7,3/6,4/5,
,,,,
,,,,
{16}B2f,
D5f,
B2f,
A4f,
B2f,
E8f,
E2f,
A7f,
A4f,
A8f,
D3f,
D1f,
E8f,
D6f,
E3f,
A1f,
D3f,
E7f,
D2f,
B5f,
A1f,
A4f,
A1f,
D7f,
B4f,
D8f,
A2f,
D4f,
E6f,
B2f,
A7f,
D3f,
A6f,
B4f,
E8f,
A5f,
A3f,
B8f,
A2f,
B4f,
B8f,
E2f,
B8f,
E4f,
B1f,
A8f,
E4f,
B6f,
E3f,
E6f,E5f,
E2f,
D8f,
E4f,
A6f,
A4f,
B7f,
E3f,
B1f,
D3f,
Cf/B1/B2/B3/B4/B5/B6/B7/B8E1/E2/E3/E4/E5/E6/E7/E8/A1/A2/A3/A4/A5/A6/A7/A8/D1/D2/D3/D4/D5/D6/D7/D8,
&inote_6=(150)
(300)
{32}
,,,,
,,,,
,,,,
,,,,
,,,,
,,,,
,,,,
,,,,
,,,,
,,,,
,,,,
,,,,
,,,,
,,,,
,,,,
(150)
{32},,,,
,,,,
,,,,
,,,,
{32},,,,
,,,,
,,,,
,,{16}3/5,{4},{16},,{24},2,
,,,,,,,,,,{4}4/6,
{32},,,,,,,7,,,,,,,,,,,,,,,{16}5/3h[32:15],{32},,,,,,,,,,,,,C,
,,,,,,,,,,,,,,{8}4/6h[32:15],{32},,,,,,,,,,,C,
,,,,,,,,,,,,,,{16}4/3h[32:15],{32},,,,,,,,,,,,,2,
,,,,,,,,,,,,,,{2}5/6h[4:1],
{1}1-5-1<7-3<6[4:5]/4-8-4[2:1],
,{4},{16},6h[32:15],
{32},,,,,,,,,,,,,5h[32:15],,,,,,,,,,,,,,,{4}4h[32:15],
{32},,,,,,,3,,,,,,,,,,,,,,,{16}3h[4:1]/7>2v4b[32:37],
{32},,,,,,,,,,,,,4h[4:1],,,,,,,,,,,,,,,{8}5h[4:1],
{32},,,,,,,,,,,6,{16},,,{64},,{96},{48}5,,,,,{24}4,
{48},,,{16}3/6,{4},,{16},,{48},5,,,,,{8}4,
{4}2/7,{32},,,,,,,,,,,,,,,,8-5[16:1],,,1-4[16:1]*>4[16:1],,,,,8,
,,,,,,,,,,,,7,,,,,,,,,,,,,,,,5/6,,,,,,,,,,,,,,,{8}4,
{32},,,,,4/5,,,,,,1p4q1p4q1p4q1p4q1p4[6:7]/8q5p8q5p8q5p8q5p8q5[6:7],,,,,,,,D1,
,C,,D5,,C,,D1,{64},,,C,,,,D5,,,,C,,,,D1,,,,,{16}C,D5,C,D1,C,
D5,C,D1,C,{4}D5,{16},E8/B7/B6/E6/B8/B1/B2/B3/B4/B5,,,,,{8}Ch[4:1],
{16},,{64},,{128}4pp1-4-1-4-1-4-1-4-1-4-1-4-1-4-1-4-1-4-1-4-1-4-1-4-1-4-1-4-1-4-1-4-1-4-1-4-1<8b[32:105],5qq8-5-8-5-8-5-8-5-8-5-8-5-8-5-8-5-8-5-8-5-8-5-8-5-8-5-8-5-8-5-8-5-8-5-8-5-8>1[32:105],{1},,,{4},{16},,,{64},,,E5,
C,{96}E1,A1/A8,{24}D1f,{4},,{16},1,
{48},1,,,{24}8,{48},,,,,,,7,,,,7,{4},{16},,,{48},{24}1s5[24:13]/5s1[24:7],
{4},,,{16},,{8}4b,
,4b,,4b,,4b,
{16}5,4,{8}3/6,{4}8/1<2b[2:1],{2}5h[2:1]/A1f,
{64},,,,,,,,1b/8b,7,,,,,,,,,,,,,,,1b/7b,6,{32}5,{64},,,,,,,,,,,,1b/6b,5,4,3,{16},,,{48}5b/1b,4,3,{192}2,,,1,{16},,{64},,{96},{8}4/5,
{4}1/8>6b[2:1],{2}3h[2:1]/A8f,
{64},,,,,,,,1b/8b,2,,,,,,,,,,,,,,,8b/2b,3,{32}4,{64},,,,,,,,,,,,8b/3b,4,5,6,{16},,,{48}8b/4b,{96}5,6,{192},{64}7,{16}8,
,,{8}1b/8b,{32}1/8,1/8,2/7,3/6,{8}4/5,{16},1/8,,,8w4[8:1]/1w5[8:1],{32}1/8,2/7,{8}3/6,
{16},Cf/B7/B2,{32},,,,,A4/A5/D4/D6,A3/A6/D3/D7,A2/A7/D2/D8,{8}A1/A8,{64},,,,8b,7,6,5,,,,,,,,,,,7b,6b,5,4,{32}3,{64},,,,,,,,6b,
5b,4b,3b,2b,1b,,,,,,,,,,,{32}4/5,4/5,3/6,2/7,{8}1/8,,4h[6:1]/7h[6:1],{32},,3/6,2/5,{8}1/4,
{4}3b/7b,{8}1,8,{32},,,4pp1>2[64:11]/6qq1<8[64:11],,,,,{16}4b/6b,4b/6b,{64},,,,,,B5,C,
B1,A1f,,,,,,,{16}4,5,3,6,2,7,1,8,2,7,3,8,4,7,
5,6,4,7,3,6,2,5,1,6,8,7,,,,,4/5,
3/2,{8}1h[8:1]/8h[8:1],,,3h[8:1],5h[8:1],7h[8:1],1<2b[2:1],
{16}2,2,E1,E8,E7,E6,E5,E4,E3,E2,,,,,{8}3h[16:1],
7h[16:1],2h[16:1],6h[16:1],3h[16:1],7h[16:1],2h[16:1],6h[16:1],1h[16:1],
5h[16:1],8h[16:1],4h[16:1],7h[16:1],3h[16:1],7h[16:1],3h[16:1],7h[16:1],
3h[16:1],{32}3b/7h[64:1],4b/8h[64:1],5b/1h[64:1],6b/2h[64:1],{4}7b/3h[64:1],{32},,5,5b,{64},2,,,,,,,{8}1,1,
{32}1bx,8bx,7bx,6bx,5bx,4bx,3bx,2bx,1bx,8bx,7bx,6bx,1x/5x,2bx,3bx,4bx,5bx,6bx,7bx,8bx,1bx,2bx,3bx,4bx/Cf,,,,,,,,,{16}5h[8:3],
4,{8}3,,4h[4:1],,3,,2v4[4:3]/6<2[4:3],
{16},,,,,,,,,,,,,,,6,
5,6h[16:5],,,,,{8}5h[4:1],,7h[4:1],,8-5>1-4[4:3],
{16},,,,,,,,,,,,,,,,5,
4,{8}5h[4:1],,4h[8:3],,1h[8:1],,8<5p4>1[4:3],
,,,,,,,4h[4:1],
,5h[16:3],{16},6h[16:3],,,{8}7,1/8,,2>4qq1[4:3]/7<5pp8[4:3],
,2/7,,,{2}B6/B7/B3/B2f,
{16},,,3bh/7bh,,5bh/1b-4<5b[16:1],,,,1b-4<6b[16:1],,,{4}1b-4<7b[16:1],
{16}1b,,,3bh/5bh,,1bh/7bh,,,,2bh/8bh,,,{4}4bq1[16:1]/6bp1[16:1],
{16}4b/6b,,,2bh/6bh,,4bh/8bh,{48},,,,,,,,,8b,7,6,{8}5,{48}8b-4b[16:1],1,2,3,,,,,,,,,{8}8b,
{16}5,5,3,7,7,2,4,6,8,3,5,1,5,7,
3,5,7,1,{4}6pp4[4:1]/3qq5[4:1],{16},,,,,2,4,2,
6,2,6,8,4,6,8,3,7,3,7,5,1,4,1<1<1b[2:1],6,
1,6,{64}A1f,D1,A8,D8,A7,D7,A6,D6,A5f,D5,A4,D4,A3,D3,A2,D2,A1f,D1,A8,D8,A7,D7,A6,D6,A5f,D5,A4,D4,A3,D3,A2,D2,{8}A1f,{16},,2,2,
5,7,7,4,6,8,3,6,8,2,4,2,5,2,5,7,
2,5,7,4,7,4,7,2,7,2,7,4,6,4,6,8,
5,1,5b,1,4,1b,4,1,6b,1,6b,3,6,3b,8,2,
2b,5,5b,8,3,5,7,7,4,7,4b/1b,6,4,6b/3b,8,5,
2b/6b,5,2b/8b,4,2,4,7,2,7b/5b,2b/4b,7b/6b,5,1,5b/2b,1,6,
1b/8b,6,3b/5b,8,3,8b/5b,3,6,3b/7b,6,8b/1b,5,8,5,8,4,
6b/2b,6,7b/4b,5,5,2,5b/4b,2,5,8,4b/8b,8,4,7b/3b,1,2b/5b,
7,2,{8}6-2<3[4:1],,3-1v8-6[4:1]*-1v8-6[4:1],{16},,,,,,,4,
7,4,6b/5b,4,6b/7b,2,6,2,6b/1b,4,3b/2b,4,1,6,1b/2b,6,
3,6b/8b,3,8,{8}3b/2b,5p8[8:1]/4q1[8:1],1b/8b,5b/4b,{16},,1,8,
2,7,3,6,4,5,3,6,2,7,{8}1h[8:1]/8h[8:1],,1-4<5-8[2:1]/8-5>4-1[2:1],
{48},,,,,,,,,,,,,,,,,B4`B5`A4`E5`D5`A5,{4},,{16}6,5,
6,5,6,3,6,5,6,2,6,5,6,1,6,5,{8}6-3<4-1>2-7>8-5<6<6b[4:3],
,,,,,,,,1,
1,{48}1b,2,3,4,5,6,7,8,1,2,3,4,5,6,7,8,,,{8}1/8,,1b/8b,
{64},,,,,,,,1b,2b,3b,4b,5b,6b,7b,8b,1b/Cf,2b,3b,4b,5b,6b,7b,8b,1b`3,2b`3,3b,4b,5b,6b,7b,8b,1b/Cf,2b,3b,4b,5b,6b,7b,8b,1b`5,2b`5,3b,4b,5b,6b,7b,8b,1b/Cf,2b,3b,4b,5b,6b,7b,8b,1b`7,2b`7,3b,4b,5b,6b,7b,8b,
1b/Cf,2b,3b,4b,5b,6b,7b,8b,1b,2b`1,3b`1,4b,5b,6b,7b,8b,1b/Cf,2b,3b,4b,5b,6b,7b,8b,1b`3,2b`3,3b,4b,5b,6b,7b,8b,1b/Cf,2b,3b,4b,5b,6b,7b,8b,1b`5,2b`5,3b,4b,5b,6b,7b,8b,1b/Cf,2b,3b,4b,5b,6b,7b,8b,1b`7,2b`7,3b,4b,5b,6b,7b,8b,
1b/Cf,2b,3b,4b,5b,6b,7b,8b,1b,2b`1,3b`1,4b,5b,6b,7b,8b,1b/Cf,2b,3b,4b,5b,6b,7b,8b,1b`3,2b`3,3b,4b,5b,6b,7b,8b,1b/Cf,2b,3b,4b,5b,6b,7b,8b,1b`5,2b`5,3b,4b,5b,6b,7b,8b,1b/Cf,2b,3b,4b,5b,6b,7b,8b,1b/Cf`7,7,{16},,,{64},,{48}1b/8b,
2/7,3/6,4/5,,,,,,,,,1b/2b,3/8,4/7,6/5,,,,,,,,,7b/8b,1/6,2/5,4/3,,,,,,,,,1b/8b,2/7,3/6,4/5,,,,,,,,,{16}B2f,
1b/D5f,B2f,2b/A4f,B2f,E8f,E2f,3b/A7f,A4f,A8f,4b/D3f,D1f,E8f,5b/D6f,
E3f,A1f,6b/D3f,E7f,7b/D2f,B5f,A1f,A4f,8b/A1f,D7f,B4f,D8f,1b/A2f,D4f,E6f,2b/B2f,
A7f,D3f,A6f,3b/B4f,E8f,4b/A5f,A3f,B8f,5b/A2f,B4f,B8f,6b/E2f,B8f,E4f,7b/B1f,A8f,
E4f,B6f,8b/E3f,E6f,1b/E5f,E2f,D8f,2b/E4f,A6f,A4f,3b/B7f,4b/E3f,B1f,D3f,{8}Cf/D6/D5/D4/D3/D2/D1/A8/A7/A6/A5/A4/A3/A2/A1/E8/E7/E6/E5/E4/E3/E2/B8/B7/B6/B5/B4/B3/B2/B1/D7/D8,
E
