&title=あかいらる
&artist=くりたにか
&first=0
&des=白安心
&lv_7=青
&inote_7=(121)
{1},
{16},,,,,,,,,,4,4,5,5,,,
{16}3<5[12:1],,6,6,,7,,7qq7[24:4],,,,,,,,,
{16}2>5[8:1],,6,6,,7,,7qq8[24:5],,,,,,,,,
{16}1>5[6:1],,6,6,,7,,7qq1[24:6],,,,,,,,,
{16}2,,3,3,,2<4[4:1],,2h[16:7],,,,,,,,,
{16}6>4[12:1],,3,3,,2,,2pp2[24:4],,,,,,,,,
{16}7<4[8:1],,3,3,,2,,2pp1[24:5],,,,,,,,,
{16}8<4[6:1],,3,3,,2,,2pp8[24:6],,,,,,,,,
{16}7,,6,6,,7>5[4:1],,7h[16:7],,,,,,,,,
{6}1h[6:1]/B5,E6,,2h[6:1]/B5,E6,,
{6}2h[6:1]/B5,E6,,3h[6:1]/B5,E6,,
{6}3h[6:1]/B5,E6,,4h[6:1]/B5,E6,,
{6}5-2[8:1],1-4[3:1],,,,,
{6}8h[6:1]/B4,E4,,7h[6:1]/B4,E4,,
{6}7h[6:1]/B4,E4,,6h[6:1]/B4,E4,,
{6}6h[6:1]/B4,E4,,5h[6:1]/B4,E4,,
{6}4-7[8:1],8<5[3:1],,,,,
{16}17,,3,5,,,21,,7<4[8:1],8,,,3,,3,,
{16}2<7[16:3],,,4,,,5,,6>3[16:3],,,7,,,8,,
{16}1>4[16:3],,,8,,,7,,6,6,,3,4,,25,,
{16}3>8-4<7[8:5]/4,,,3h[16:11]/4,,,,,,,,,,,,,
{16}82,,6,4,,,78,,2>5[8:1],1,,,6,,6,,
{16}7>2[16:3],,,5,,,4,,3<6[16:3],,,2,,,1,,
{16}8<5[16:3],,,1,,,2,,3,3,,6,5,,74,,
{16}65,,,47,,,6-1[8:1]/5-2[8:1],,,,,,,,,,
{8}4v5[8:29],,,,6,6,6-2-6-2-6-2[8:7],6,
{1}6,
{8}7,,,7,7,7,7-3-7-3-7-3[8:7],7,
{1}7,
{16}2h[16:6]/4,,,C,,,,,3h[16:6]/5,,,C,,,,,
{16}7h[16:6]/5,,,C,,,,,6h[16:6]/4,,,C,,,1-5[8:1],,
{8}2,7-3[8:1],6,2-6[8:1],1,8-4[8:1],7>6[4:1],8,
{16}7,,,1,,,2,4,3,5,4,6,5-1[8:1],,46,,
{4}5/2<7[8:1],4-8[8:1],4/1<6[8:1],5-1[8:1],
{4}5/2<7[8:1],4-8[8:1],4/1<6>3[16:3],3,
{16},,2,1,2>5[8:1],1,2,,62,7,8,,1,,8,,
{16}7,,6,,6,5,6,5,4,5,4,5,4-8[8:1],,35,,
{4}4/7>2[8:1],5-1[8:1],5/8>3[8:1],4-8[8:1],
{4}4/7>2[8:1],5-1[8:1],5/8>3<6[16:3],6,
{16},,8,1,2>4[12:1]/7,,1,,6<8[12:1]/2,,5,,4>2[12:1]/6,,
{8}5,7<5[12:1]/4,8,2>4[12:1]/7,1,8<6[12:1]/2,1,3-7[8:1]/8,,
{4}3,{64}8x-4[8:1],1x,2x,3x,4x,5x,,,,,,,,,,,{4}8/3<6[8:1],1-5[8:1],
{4}1/4<7[8:1],8-4[8:1],8/3<6[8:1],1-5[8:1],
{4}1/4<7>2>8[2:1],2h[2:1],,{16},,5,4,
{8}3>1[12:1]/6,4,6>4[12:1]/3,7,2>4[8:1]/6,1,7-2[8:1]/2,8,
{4}7,{64}1x-5[8:1],8x,7x,6x,5x,4x,,,,,,,,,,,{4}1/6>3[8:1],8-4[8:1],
{4}8/5>2[8:1],1-5[8:1],1/6>3[8:1],8-4[8:1],
{4}8/5>2<7<1[2:1],7h[4:5],,,
{16}6b,,5b,,4b,,3b,,2b,,,1b/7b,1b-5b[8:1]/7b-3b[8:1],,3b/5b,,
{1}1b>8b[2:3]/7b<8b[2:3],,
{16}8q6[6:1],,4,4,,4,,4pp2[24:6],,,,,,,,,
{16}7,,6,6,,7-1-3-5[4:1],,7h[16:7],,,,,,,,,
{16}1pp1[6:1],,7,7,,7,,7qq7[24:4],,,,,,,,,
{16}1pp2[6:1],,6,6,,6,,6qq7[24:5],,,,,,,,,
{16}1p3[6:1],,5,5,,5,,5qq7[24:6],,,,,,,,,
{16}2,,3,3,,2-8-6-4[4:1],,2h[16:7],,,,,,,,,
{8}1h[8:3]/8-5[8:1],,,,{12}1-5[8:1],2,2,{16}1,,,7,
{16},6,5,,74,,,,{12}8-4[8:1],7,7,{16}8,,,2,
{16},3,4,,25,,,3,6-2[8:1],75,,,6,,,3,
{16},4,4,,3<5pp7[4:1]/6h[8:5],,,,,,,,,,1<5[16:3],,
{16}1h[4:1],,,,,,1,,2,5,3,7,4,6,,78,
{16},2,13,,18,,,,6,6,4,4,5,5,3,3,
{16},8,2,,35,,4,6,4,6,4,6,4,6,,8>7[8:3],
{16},27,2h[16:10]/7,,,,,,,,,,{12}E8,E7,E6,
{8}1v8[8:29],,,7,7,7,7-3-7-3-7-3[8:7],7,
{1}7,
{8}6,,,6,6,6,6-2-6-2-6-2[8:7],6,
{1}6,
{4}6/5>3[12:1],,6/5>2[8:1],,
{8}6/5>1[8:1],,,,6/5>8[8:1],,,7-3[8:1],
{8}6,1-5[8:1],2,8-4[8:1],6,1,2,3,
{16}45,,,65,,,6-3[8:1]/7-2[8:1],,,,,,,,,,
{16}8-5[8:1],,,,2,,3,,4,,,4,,,8-5[8:1],,
{16},,2,,3,,4,,,,2,,3,,4,,
{64}54,3,2,,,,,,,,,,,,,,,,,,,,,,,,,,,,,,65,4,3,,,,,,,,,,,,,,,,,,,,,,,,,,,,,,
{64}76,5,4,,,,,,,,,,,,,,,,,,,,,,,,,,,,,,76,5,4,,,,,,,,,,,,,,,,,,,,,,,,,,,,,,
{48},,,,6,5,4,3,2h[48:112],,,,,,,,,,,,,,,,,,,,,,,,,,,,,,,,,,,,,,,,
{1},
{12},,,,,,C,,,,,E8,
{12}B8,,,,,B8,B1/C,,,,,,
{12},,,E8,B8,B1,E2/C,,,,,E8,
{12}B8,,,,,B8,B1/C,,,E6,B5,B4,
{12}E4,,,E8,B8,B1,E2/C,E7,C,E3,,E8,
{12}B8,,,,,B8,B1/C,E7,C,E3,,,
{12}C,,,E2,B1,B8,E8/C,,,,,,
{12},,,,,B1,B8/C,,,E4,B4,B5,
{12}E6,,,,,B4,B5/E2,,,,,,
{8},,,,D8/E8,D1/E1,E2/D2,,
{8},,,,D8/E8,D1/E1,E2/D2,,
{8},,,,D8/E8,D1/E1,E2/D2,,
{8},,,,D8/E8,D1/E1,E2/D2,,
{8},,,,D8/E8,D1/E1,E2/D2,B8/B1,
{8}C,,,,D8/E8,D1/E1,E2/D2,B8/B1,
{8}C,,,,D8/E8,D1/E1,E2/D2,B8/B1,
{8}C,,,,D8/E8,D1/E1,E2/D2,,
{8}C,,B6/B3,,E8/B7,C/E1,B2/E2,,
{8},,,,E8/B7,C/E1,B2/E2,,
{8},,,,E8/B7,C/E1,B2/E2,,
{8},,,,E8/B7,C/E1,B2/E2,,
{8},,,,E8/B7,C/E1,B2/E2,B5/B4,
{96}E5,,,,,,,,,,,,,,,,,,,,,,,,,,,,,,,,,,,,,,,,,,,,,,,,,,,,,,,81,,B7/B2,,E6/E4,4xh[96:84]/5xh[96:84],,,,,,,,,,,,,,,,,,,,,,,,,,,,,,,,,,,,
{32},,,,,,,,,,,,,,,6!-2[16:1],,,,,,,,6,,,,,,,,6!-2[16:1],
{32},,,,,,,6,,,,,,,,6!-2[16:1],,,,,,,,6,,,,,,,,1!-7-2-6-3-5[2:1:1],
{32},,,,,,,,,,,,,,,,,,,,,,,,,,,,,,,{512},,,,,,,,
{48}A8/3<8[32:5],B8,C,B4,,,,,,,,,{4}1-7-5[32:5]/A3,4<1[32:5]/1,8-6-4[32:5]/A4,
{4}8/3<8[32:5],1-7-5[32:5]/A3,4q6[16:3]/1,8/A4,
{16},,6,5,6<8[8:1],5,6,,64,3,2,,1,,2,,
{16}3,,4,,4,5,4,3,4,5,4,3,4-2-8[32:5],,65,,
{4}4/7>4[32:5],5-3-1[32:5]/A7,8>5[32:5]/5,4-2-8[32:5]/A8,
{4}4/7>4[32:5],5-3-1[32:5]/A7,8q2[16:3]/5,4/A8,
{16},,8,8,7<5[8:1]/1,,8,,4-8[8:1]/7,,3,,1>3[8:1]/4,,3,,
{8}7-3[8:1]/1,6,4>2[8:1]/7,5,{32}4/8,,,,8,7,6,,5<2[8:1],,,,4,,,,
{8}3h[64:22]/5,,{64}1x-5[8:1],8x,7x,6x,5x,4x,,,,,,,,,,,{4}6>1[32:5]/1,8-2-4[32:5]/A6,
{4}5>8[32:5]/8,1-3-5[32:5]/A5,6>1[32:5]/1,8-2-4[32:5]/A6,
{8}5pp3[4:1]/8,,7h[4:1]/A5,,,81,7,65,
{16}4,,32,,1,,8,2,1,,83,,{48}5-1[8:1],46,37,,,,,,,,,,
{4}45,{64}5x-7-1[32:5],4x,3x,2x,1x,8x,,,,,,,,,,,{4}2<5[32:5]/5,4-6-8[32:5]/A2,
{4}1<4[32:5]/4,5-7-1[32:5]/A1,2<5[32:5]/5,4-6-8[32:5]/A2,
{4}1<4>5[2:1]/4,4h[4:5]/A1,,,
{8}3b,2b,1b,8b,7b,{16},6b/5b,6b-2b[8:1]/5b-1b[8:1],,4b/7b,,
{1}6b<6b[2:3]/5b>5b[2:3],,
{16}8<4[6:1],,3,3,,2,,2pp8[24:6],,,8,,7,,6,,
{16}1p3[6:1],,5,5,,5,,5qq7[24:6],,,8,,1,,2,,
{16}3-6[8:1],,,,,,,,7,8,6,1,25,,3,4,
{16},2-7[16:1],1,,2-6[8:1]/8h[8:1],,,,2,,4,4,4,,7,8,
{16},6-3[16:1],5,,4h[8:1]/6,,,4,4,3,3,2,2,1,1,8,
{16},6,75,,1-5[8:1]/4-8[8:1],,,,,,,,,,7-4[8:1],,
{16}8-3[16:1],,,,,,6,,2,1,3,8,4,7,,35,
{16},2/6<1[16:1],26,,65,,,,3,3,5,5,4,4,6,6,
{16},37,37,,62,,8,1,5,4,1,2,6,5,,3-5-3[4:1],
{16},7,7,7h[16:9],,,,,,,,,,,,,
