&title=Welcome, Queen of Fiction
&artist=打打だいす
&first=0.03
&des=flawi
&lv_5=14+
&des_5=flawi
&inote_5=
(131){4},Ch[8:1],{24}4,6,4,6,4,6,4,6,4,6,4,6,
3,5,3,5,3,5,3,5,3,5,3,5,4x,4x,4x,4x,4x,4x,4x,4x,4x,4x,4x,4x,
{8}4xh[8:1],B7/B8,5x/6xh[8:1],B4/B5,{4}7x/3xh[8:3],{8}6,4,
{24}1>4[8:1],,,,,6,{8}1,7,8/5,{24}4,6,4,{8}6h[8:1],1,
{24}8<5[8:1],,,,,2,{8}8,1,{64}2x/6x,B6/B2,{32}Cf,,,,,,,{8}6/4h[8:1],8,
1,{24}8/3<6[8:1],,1,{8}2,3/Cf,8x-4[12:1],1x/2x-6[12:1],4/8bx,2bx,
{32}7x,5x,{16}7xh[16:1],{8}B1,{32}2x,4x,{16}2xh[16:1],{8}B7,3x/6x<1[8:1],4,2-5[8:1],3,
{16}2/8-4[8:1],,,1,{8}8,3,6x/3x>8[8:1],5,7-4[8:1],6,
{16}7/1-5[8:1],,,8,{8}1,6,{24}7x/1x,6,5,4,3,2,8,7,6,5,4,3,
6,7,8,4,3,2,7,6,5,1,2,3,{32}8,7,6,5,4,3,2,1,8/4,5,6,7,8,1,2,3,
{2}Ch[8:1]/4w8[8:1],{8}3/7<4[12:1],8x/1-5[12:1],{16},1,{8}1x>4[12:1],
{16},6,{8}1,{24}6,5,6,4x,,,{8}5/3-8[12:1],1x/7<4[12:1],{16},7,{8}7x-3[12:1],
{32},,,4,{16}7,2,{24}1,4,1,4x,{48},{16}8,6-2[12:1],4,5-1[12:1],3,6x,4,5x,8,
7,{32}6x,5,4,3,2,1,8,7,{48}6x,5x,4x,3x,2x,1x,8x,7x,6x,{2}5xh[2:1],
{8}C,7x/B3/B4,1x/E8/B7,5x/B2/B1,6bx/3bx>8[12:1],5-1[12:1],{16}3,6,{8}5,
2-6[12:1],3/4-8[12:1],2,4,3<6[12:1],7-4[12:1],{16}3,7,{8}7,
2,3x/5x,6x/2x,1x/7x-5[12:1],8x-4[12:1],2/7-3[12:1],{16}8,7,{8}7,
1>4[8:1],4-8[12:1]*-7[12:1],1,A4,{16}1-6[12:1],6,5w1[8:1],4,,,{8}5<4b[4:1],
,5b/4b,,Cf,{16}1-3[12:1],5,4,5,1,6,6,4,
7-1[12:1],3,5,3,7,2,2,5,4>1[12:1],7,5,6,4,7,7,8,
6-3[12:1],2,8,2,6,1,1,7,2,4,4,4,3,5,5,5,
1,6,6,6,3,5,4,1,2,8,8,8,1,5,5,5,
{32}3,4,3,4,{16}3,{32}6,5,6,5,{16}6,3V51-7-2-6-3[8:7],5,,,,,,,,,,,,,,,,,,,{8}6bx/1bx,
,8bx/3bx,
6bx/5bx,{16}7b/3b,5bh[8:1]/1bh[8:1],,,,,7x,4h[16:1],8,5,6,3,3,2x/5x<8[48:5],
,7x/1x,,5,{32}1,2,3,4,{16}5x,8,4,1h[16:1],2,8,6,7x/5x>2[12:1],,3x/8x-4[48:5],
,5x/6x,,8x,1,1,5,4,7,2,1,3x/8x<5[12:1],,7/1,,8x,
{32}4,3,2,1,{16}8x,4,1,{32}5,2,{16}5,1,4,7x/5x,,1x/3x,,5x/2x,,8x/3x,
6/4,7,1/8,3,{8}6h[16:1]/4h[16:1],{16}5/3,2,7/1,6,{8}5h[16:1]/3h[16:1],{16}4x/6x,7,8/1,3,
{8}7h[16:1]/4h[16:1],{16}6x/5x,4,3/8,7,{8}6h[16:1]/1h[16:1],{16}2x-5[16:1],8x-6[16:1],3,7,2,8,1x-5[16:1],5x-2[16:1],
2,5,1,6,7x-3[16:1],1x-5[16:1],8,2,7,1,{8}6xh[16:1],7xh[16:1]/5xh[16:1],8xh[16:1]/4xh[16:1],
1x/3xh[8:1],4<7[12:1],1h[8:1],4,2h[8:1],8h[8:1],5v2[12:1],6h[8:1],
5,8h[8:1],3h[8:1],4h[#0.2290077],(126){16}3,2,1,8,5,5,(121)6,7,
8,1,3,3,(106)6h[16:1],5h[16:1],4h[16:1],3h[16:1],2h[16:1],1h[#0.14151],(95){8}8h[8:1],7-3[0.6316##0.2586],6,
(116)7/2,8-3[8:1],1>4[8:1],8<5[8:1],1,8,3,1/5-1[8:1],
4-7[8:1],3/5<8[8:1],4,5,2-6[8:1],8-4[8:1],1/2>5[8:1],8,
2,7v4[8:1],6/4,7/3<2[4:1],2,3/5,,7,
3x/8x-4[8:1],{16}7,7,{8}8/3,1x-6[8:1],{16}2,2,{8}7/1,8x<5[8:1],{16}7,7,
{8}8/2,3x-7[8:1],{16}2,2,{8}3/5,{16}6x<1[8:1],5,4-8[8:1],3,6-2[8:1],3,{8}4>1[8:1],
6pp5b[4:1],4,6b,1qq4[4:1],2,1,5w1b[0.5172##0.2308],6,
(130){4}A5f,{8}7/3,6,{16}2h[8:1]/5-1[12:1],,,2,{8}5,B3/B4,
8h[8:1],{24}5,7,5,{8}7h[8:1],4,{16}8h[8:1]/2-6[12:1],,,1,{8}2,7,
(135){4}5x/Cf,{8}2/6>3[12:1],1,6/8-4[12:1],{16}1,7,{8}8,5h[8:1],
2-5[12:1],1/8-4[12:1],2,8,{32}2,5,{16}2h[16:1],{8}4,{32}7,1,{16}7h[16:1],{8}3,
(140)8bx<5[12:1],1,2V48[6:1],{16}2,4,{8}2,{16}6-1[8:1],6,{8}2,6/4,
B2f/E2/E3,4-8[12:1],7-3[8:1],4,7,{16}2,2,{8}5h[8:1],3,
(145){16}8,8-4[12:1],2,2-6[12:1],7x,8h,3x,2h,7,7-4[8:1],3,3-1[0.4138##0.2034],6x,7h,2x,3h,
(150){32}5x,6,7,8,1x,2,3,4,5x,6,7,8,1x,2,3,4,5x,6,7,8,1x,2,3,4,5x,6,7,8,1x,2,3,4,
{8}5x/1x,1x/5x,2x/6x,3x/7x,{24}4,8,4,8,4,8,4,8,4,8xh[8:1],,,{12}5x,
1x/2x,7x/4x,5xh[8:1]/1xh[8:1],,,3x/8x,6x/1x,4x/7x,5x/2x,{96},,,,,,,,,,,,,,,,{32}2/8xh,
3,{16}4/8xh,{32},,7/1xh,6,{8}5/1xh,{16}2xh/7xh,{32}7x/2x,6/3,{8}5/4,E7,C,E3,
7/1b-5>2[4:1],6,{16}1,6,7,8-4-6[16:3],,,1,8,{8}3,2,
7x/3-8-4[4:1],{16}3,3,8,7,6,5V71[16:3],,,{8}1-5[12:1],{16}3,3,{8}4,
2-5[8:1],{16}3,8,2,8,7-3[12:1],6,1,1,7<4[8:1],8,1,2,7,3,
3x-7[16:1],,,6x>3[16:1]/3x>8[16:1],,,{8}6x/3x,{24},,,1,5,1,5,1,5,1xh[8:1],,,{8}7x,
{32}8/3,7,{16}6,4/2,4/2,,8b,{32}4,6,4,6,{8}4h[8:1],{32}7,5,7,5,{8}7,
8x/4x,{32}1/6,2,{16}3,5/7,5/7,,1b,{32}5,3,5,3,{8}5h[8:1],{32}2,4,2,4,{8}2,
7x/3x,5x/1x,{16}2/6,7/3,,8/4,{24}3,2,1,7,6,5,{48}1,2,3,4,8,7,6,5,4,3,2,1,
{8}8xh[24:5],{24}4,,4,,7/3,,7/3,,6/2,,5/1,,{8}4bh[4:1]/8bh[4:1],{48},,,,,,,D1/D5,A1/A5,D2/D6,A2/A6,D3/D7,
{8}A3/A7,4b>2-8b[2:1]*<6-8b[2:1],,,,,,,C,
6/4,{48}8b/2h[8:1],,,,,,,3x,4x,7,,,{16}7,5,8,1,4,3,{32}5,6,7,8,
{8}1/4,5/3,{48}8/7h[8:1],,,,,,,6x,5x,2,,,{16}2,4,1,6,5,7,{32}4,3,2,1,
{4}8/5,{48}8b/1bh[8:1],7,6,5,4,,,,,2b/8bh[8:1],3,4,5,6,,,,,1w5b[8:1],2/8,7/3,6/4,{24}5,,,,,,,,,,{8}8x/3x,
6/2,{16}4/3,4h[16:1]/3h[16:1],,7/1,,6/5,,2/4,{8}6/8,
7/3,5x/1x,6/4,{16}3/8,8h[16:1]/3h[16:1],,6/1,,4/7,,5/2,{8}8/3,
7b/4b,{16}2/5,2,6,6,1,1,7,{48}2x>8[0.4##0.5],1x,,,,,,,,{8}8x,7x,
6xh[#0.4142838],(140),1bx-5b[0.4286##1.0604],1,1,(130)1,1,1,
1,(120){24}E2,,E3,,E4,,D7,,D8,,D1,,(100){8}3h[#0.3000031],(90)8h[#0.3333359],(80)5h[#0.375],
(70),(128)8bx/E3f/B2/B3/B1/B4,,7xp3[8:1],2,7/8-4[8:1],{16},6,{8}8,
B6/E7,(133),{24}5x,6x,7x,8x/1x-5[8:1],,,{8}2,1/6<1[8:1],{16},4,{8}6,
B3/E4,(138)2bx/B8/B7/E7f/B6/B5,,8<5[8:1],4,8/2q6[8:1],{16},7,{8}2,
8x,(143)7x/1x,5x/3x,2bx/8bx,6bx/4bx,{32}8/1xh[8:1],7,{16}6,{32},,,,2/5xh[8:1],3,{16}4,
,,(148){8}1b/2b-6[8:1],8x,{16}2>5[8:1],7,{8}7,2,{16}8-4[8:1],7,{8}7,
8/3,2x,4/6-2[8:1],{16}1>4[8:1],1,{8}6,1,{16}6,6,{8}5,
8x/2x,(153){32}1,2,3,4,8,7,6,5,2,3,4,5,7,6,5,4,1,2,3,4,8,7,6,5,1,2,3,4,
{8}5x/8x,{32}8x,7,6,5,4/1,2,3,4,5/8,7,6,5,4/1,2,3,4,5/1,8,7,6,5/1,2,3,4,5/1,8,7,6,
{8}5b/1b,{24}3,4,3,4,3,4,3,4,3,5,2,5,2,5,2,6,1,6,1,6,1,
6,1,6,1x,{12}8x,7x,1x,6x,2x,5x,Cfh[4:1],,,B6/B5/B4/B3,
{96},,,,,,,,,,,,,,,,,,{32}7b,5,7,5,{16}7,{32},,2b,4,2,4,{16}2,{32},,7-5b[8:1]*-1b[8:1],8,7,8,{16}7,,7bx,
{32},,,,,,2b,4,2,4,{16}2,{32},,7b,5,7,5,{16}7,{32},,1bw5b[8:1],8,1,8,{16}1,,1b,
,,,7/3h[16:1],7,2/6h[16:1],2,5/1,5/1,2/6,2/6,{32}2,3,4,5,8,7,6,5,{48}2b,3,4,
5,6,7,8/4x,1,2,3,4,5,(96)8xh[8:5]/6xh[8:5],{4},,{16},,,{24},{16}4xh[4:1],
,7,,6,,5xh[4:1],,2,,3,,(76)8x<5[8:1],,1,,3,
,4x>1[0.7895##0.3947],,8,,7,,(110)6x,,,,B3,,,,B6,
,,,1xq3b[2:1],,,,6x>8[4:1],{1},,{4},{16},,
E
