&title=Ego Eimi
&artist=BlackY feat. Risa Yuzuki
&first=0
&des=ninop
&lv_5=14
&lv_6=14*
&inote_5=(178)
{1},,
{2}4h[4:8]/5,,,,6h[4:8],,5pp4[4:2],,2h[4:4],,
{8}4,,,3-5[8:1]/5,,,,,
{8}6h[4:3],,,,,,5<8[16:3],3pp4[16:4],
{8},,,1-5[8:1],,,,,
{8}3b/4-6[8:1],,2,,7h[4:1],,5,,
{8}3,3/4-6[8:1],,2,2-4[8:1],,8,,
{8}6,6/5-3[8:1],,7,7-5[8:1],,1,,
{8}2pp4[16:3],5,6pp8[16:3],,,,3,,
{16}2x/6x,,,,7,,4,5,3,,3h[8:4],,,,,,
{16},,5,,4,,6,5,7,,7,,5,6,5,6,
{16},,4,,5,,3,4,2,,2h[4:1],,4,,6,,
{16}1,2,3,4,8,7,6,5,2,3,4,5,6,7,8,1,
{8}7x-4[8:1]/2x,,1,,2>5[8:1],4,6,,
{8}7-4[8:1],7,3,2,1-4[8:1],,4,,
{8}7-4[8:1],7,3,2,1-5[8:1],,4,,
{8}7-4[8:1],7,3h[8:2],,{16}2,1,8,7,6,5,4,3,
{8}1b-7[8:1],1,5-8[8:1],5,2-6[8:1],2,5<8[8:1],5,
{16}3,,3,,4,,4,,4/5,,6,5,7,,7,,
{16}5,6,5,6,4,5,4,5,3,4,3,4,2,3,2,3,
{32}1x,8x,7x,6x,5x,4x,3x,2x,1x,8x,7x,6x,5x,4x,3x,2x,{8}8-4[8:1],,,,
{8}E3h[4:6],,,Ch[8:9],,,E7h[4:3],,,,,,,,,,{4}4x<3[8:9],,,,
{4},,4-2[8:1]*pp6[32:5],,
{16}1b/5b-1[8:1],,,,3-6[8:1],,3,,7h[4:1],,,,4,,4,,
{16}7,5,7,5,6,,3,4,3,4,2,,3<6[8:1],,,,
{16}1-5[8:1],,,,7-4[8:1],,7,,2h[4:1],,,,5,,5,,
{16}2,4,2,4,1,,6,5,6,5,7,,1-4[8:1]*-6[8:1],,,,
{16}1,,,,7,,5/7-4[16:2],,,,2-5[8:1]/7,,,,8>7[8:3]/2,,
{16},,3,,,,,,1w5[8:1],,,,1,,,,
{16}7b-4[8:1]/3b,,,,2,,1b>4[8:1],,,,5b-1[8:1]/1b,,,,7b-4[8:1]*-3[8:1]/5b,,
{16},,,,,,,,2,5,2,5,{32}1-5[8:1],8,7,6,5,4,3,2,
{16},,,,6b-3[8:1]/4b,,6,,2h[4:1],,,,4,,4,,
{16}2,5,2,5,4,,6,5,6,5,7,,6>3[8:1],,,,
{8}8b-4[8:1],,2,2b-5[8:1],,4,6b,8bh[16:3],
{16}5,6,7,8,1,2,3,4,8x,,,2x>5[32:4]/6x<1[32:4],,,2x/6x,,
{16},,,,6b/3b-5[32:3],,3,,7-4[8:1],,7,,2-5[8:1],,2,,
{16}8-4[8:1],,8,,1,,1,,2/6,7,8,1,2,3,4,5,
{16}2/6,,2,,3/5,,3/5,,4/6,,4/6,,7/5,,7/5,,
{12}8xh[1:0],4h[1:0],6h[1:0],1xh[1:0],5h[1:0],3h[1:0],7xh[1:0],5h[1:0],6h[1:0],2xh[1:0],4h[1:0],3h[1:0],
{8}5xb,5b<8[8:1],,3b,4b>1[8:1],,6b,5b,
{16}8x,7,6,5,7x,6,5,4,6x,5,4,3,6b/2x,,,,
{16}7x,,6,5,6,,4/7,,6,5,6,,3,4,3,4,
{16}2x,,4,3,,5,4,,7,5,7,6,7,8,7,1,
{16}6x,,3,4,3,,2/5,,3,4,3,,6,5,6,5,
{16}7x,6,5,4,1x,2,3,4,8x,7,6,5,4,3-7[32:3],2,1,
{16}8xz4[32:5],,,,1b,,,,,,3/7,,6,5,6,5,
{16}7,,5,6,,4,5,,2,6,3,4,1,,1x,,
{16}7b,5,6,5,6,5,8b,4,5,4,5,4,1b,3,4,3,
{16}8x,7,6,5,1x,8,7,6,2x,1x,8x,7x,3x,2x,1x,8x,
{16}4x,,1b,1b,2b/6b,,,,5/6-4[8:1],,6,,8,,,,
{16}2-5[8:1]/5,,,,1,,1,,8/4-8[8:1],,4,,6,,,,
{16}1b,4,3,4,3,4,2x,4,2b,4,3,5x,3,4,2b,4,3,4,3,4,2x,4,3,5x,2b,4,3,5,2x,7x,4x,5x,
{16}1x,,1x,,8/3,,8,,6/1,,1,,8/2,,8,,
{16}1/7,,1/7,,2/6,,2/6,,3x,7x,4x,8x,3x,7x,4x,8x,
{12}2,2,6,1,1,5,8,8,4,7,7,3,
{12}8,1,2,7,8,1,6,7,8,5,6,7,
{1}4x>6pp3[8:15],,
{8}8xh[4:4],,,,,,,,
{8}E4,,,E5,,,E6,,
{8}8<2[4:5],,,,,,,,
{8},,,,5h[4:2],,,,
{16}2b-5[8:1],,,,6,,8b<5[8:1],,,,{32}4b,3,2,1,{8},8b-4[8:1]/4xh[4:1],
{16},,,,5x,,5x,,3,4,3,4,3,4,3,4,
{4}5x<4b[4:5],,,,,,,5,5s1[4:4]/4z8[4:4]
,,,,,,A7h[4:2]/B3h[4:2]/A2h[4:2]/B6h[4:2],,
{64},Cf,,,,,,,,,,,,,,,{32}1b/8b,2b/7b,3b/6b,4b-8V25[16:7]/5b,,,,,{4},,
{16},,{32}1b,8,7,6,{16},,4,,4x/2,,5x,3x,8x,,8x,,
{32}3b/7b,2/6,1/5,8/4>1[32:3],,,,,,,,,8b,7,6,5-2[32:3],,,,,,,,,1,8,7,6,,,,,
{12}8xh[1:0],6,4h[1:0],8x,2h[1:0],4,1xh[1:0],7,5h[1:0],1x,3h[1:0],5,
{8}8xh[1:0],,4/7,7,6/3,3,2/5,5,
{8}1/4,2/5,3/6,4/7,{16}5x,8,5x,8,5x,8,5x,8,
{16}4b>1[8:1],,,,1,,7b-3[8:1]*-4[8:1],,,,7b,,,,2b,,
{16}1x-4[8:1]/5x,,,,,,,,7/3,,2,6,4,,5x,,
{16}1x/8x,,,,2-4[32:3]/5,,2,,6,,,,1-5[8:1]/5,,1,,
{16}7,,,,2>5[8:1]/6,,2,,8-4[8:1],,,,1,,,,
{16}2/6,,,,7-5[32:3]/4,,7,,3,,,,8-4[8:1]/4,,8,,
{16}2,,2,,7/3,,7,,1,5,1,5,1,5,1,5,
{8}8b>3[8:1],2bx/4bx,,5b<8[8:1],4bx/7bx,,2b>5[8:1],1bx/3bx,
{8},7b>2[8:1],5bx/6bx,,{16}4b,,,1bx/6bx,,,2b/8b,,
{1}2bh[4:4]/8bh[4:4],
{12},,,7,4,5,2x-5[8:1]/6x-1[8:1],,,2b/6b,,,
{16}8b/4b,,2,6,1-5[8:1],,4,,1,,6,,7h[8:2]/4,,,,
{16}8,,5,3,8,,2/6,,1,5,3,4,2,8,5,6,
{16}1b,,4,3,7-4[8:1],,5,,7,,1,,6/2h[8:2],,,,
{16}1b,,3,4,8,,1b/7b,,6,5,8,,2b,6b,2b,6b,
{16}1,,7,3,8-4[8:1],,5,,8,,3,,5/2h[8:2],,,,
{16}1,,4,6,1,,3/7,,{24}8x,1,2,3,4,5,1x,8,7,6,5,4,
{16}7b-4[8:1],,,,3,,1b-5[8:1]*-6[8:1],,,,1b,,,,4xw8[8:1],,
{16},,,,,,,,7,3,7,3,{32}8-4b[8:1],1,2,3,4,5,6,7,
{16},,,,2b-5[8:1]/6b,,2,,7h[4:1],,,,4,,4,,
{16}8,5,6,5,7,,2-7[8:1],4,3,4,2,,5xh[4:1],,,,
{32}8b,1<6b[32:3],2,3,,,,,,,,,5b,4-6[32:3]*-7[32:3],3,2,,,,,4b>1[32:3],,,,,,4b,,,,,,
{32}7b,6b,5bw1b[32:3],4b,,,,,{16},,,,1x/8x,,,2x-5[32:4]/7x-4[32:4],,,2x/7x,,
{16},,,,3b/6b-4[32:3],,6,,2-5[8:1],,2,,7-4[8:1],,7,,
{16}1-5[8:1],,1,,8,,8,,7/3,2,1,8,7,6,5,4,
{16}7/3,,7,,6/2,,6/2,,5/1,,5/1,,8/4,,8/4,,
{16}1,5,4,6,2,8,5,7,1h[1:0],4h[1:0],3h[1:0],7h[1:0],2h[1:0],5h[1:0],4h[1:0],8x<1-5[8:34],
{8},{32}E3f,B3,C,B7,{8}E7,,,,,,
{8},,,,,,,,
{8},,(175),,(165),,(150),,
{8}(135),,,,(115),(95),(85),,
&inote_6=(178)
{1},,
{2}4h[4:8]/5,,,,6h[4:8],,5pp4[4:2],,2h[4:4],,
{8}4,,,3-5[8:1]/5,,,,,
{8}6h[4:3],,,,,,5<8[16:3],3pp4[16:4],
{8},,,1-5[8:1],,,,,
{8}3b/4-6[8:1],,2,,7h[4:1],,5,,
{8}3,3/4-6[8:1],,2,2-4[8:1],,8,,
{8}6,6/5-3[8:1],,7,7-5[8:1],,1,,
{8}2pp4[16:3],5,6pp8[16:3],,,,3,,
{16}2x/6x,,,,7,,4,5,3,,3h[8:4],,,,,,
{16},,5,,4,,6,5,7,,7,,5,6,5,6,
{16},,4,,5,,3,4,2,,2h[4:1],,4,,6,,
{16}1,2,3,4,8,7,6,5,2,3,4,5,6,7,8,1,
{8}7x-4[8:1]/2x,,1,,2>5[8:1],4,6,,
{8}7-4[8:1],7,3,2,1-4[8:1],,4,,
{8}7-4[8:1],7,3,2,1-5[8:1],,4,,
{8}7-4[8:1],7,3h[8:2],,{16}2,1,8,7,6,5,4,3,
{8}1b-7[8:1],1,5-8[8:1],5,2-6[8:1],2,5<8[8:1],5,
{16}3,,3,,4,,4,,4/5,,6,5,7,,7,,
{16}5,6,5,6,4,5,4,5,3,4,3,4,2,3,2,3,
{32}1x,8x,7x,6x,5x,4x,3x,2x,1x,8x,7x,6x,5x,4x,3x,2x,{8}8-4[8:1],,,,
{8}E3h[4:6],,,Ch[8:9],,,E7h[4:3],,,,,,,,,,{4}4x<3[8:9],,,,
{4},,4-2[8:1]*pp6[32:5],,
{16}1b/5b-1[8:1],,,,3-6[8:1],,3,,7h[4:1],,,,4,,4,,
{16}7,5,7,5,6,,3,4,3,4,2,,3<6[8:1],,,,
{16}1-5[8:1],,,,7-4[8:1],,7,,2h[4:1],,,,5,,5,,
{16}2,4,2,4,1,,6,5,6,5,7,,1-4[8:1]*-6[8:1],,,,
{16}1,,,,7,,5/7-4[16:2],,,,2-5[8:1]/7,,,,8>7[8:3]/2,,
{16},,3,,,,,,1w5[8:1],,,,1,,,,
{16}7b-4[8:1]/3b,,,,2,,1b>4[8:1],,,,5b-1[8:1]/1b,,,,7b-4[8:1]*-3[8:1]/5b,,
{16},,,,,,,,2,5,2,5,{32}1-5[8:1],8,7,6,5,4,3,2,
{16},,,,6b-3[8:1]/4b,,6,,2h[4:1],,,,4,,4,,
{16}2,5,2,5,4,,6,5,6,5,7,,6>3[8:1],,,,
{8}8b-4[8:1],,2,2b-5[8:1],,4,6b,8bh[16:3],
{16}5,6,7,8,1,2,3,4,8x,,,2x>5[32:4]/6x<1[32:4],,,2x/6x,,
{16},,,,6b/3b-5[32:3],,3,,7-4[8:1],,7,,2-5[8:1],,2,,
{16}8-4[8:1],,8,,1,,1,,2/6,7,8,1,2,3,4,5,
{16}2/6,,2,,3/5,,3/5,,4/6,,4/6,,7/5,,7/5,,
{12}8xh[1:0],4h[1:0],6h[1:0],1xh[1:0],5h[1:0],3h[1:0],7xh[1:0],5h[1:0],6h[1:0],2xh[1:0],4h[1:0],3h[1:0],
{8}5xb,5b<8[8:1],,3b,4b>1[8:1],,6b,5b,
{16}8x,7,6,5,7x,6,5,4,6x,5,4,3,6b/2x,,,,
{16}7x,,6,5,6,,4/7,,6,5,6,,3,4,3,4,
{16}2x,,4,3,,5,4,,7,5,7,6,7,8,7,1,
{16}6x,,3,4,3,,2/5,,3,4,3,,6,5,6,5,
{16}7x,6,5,4,1x,2,3,4,8x,7,6,5,4,3-7[32:3],2,1,
{16}8xz4[32:5],,,,1b,,,,,,3/7,,6,5,6,5,
{16}7,,5,6,,4,5,,2,6,3,4,1,,1x,,
{16}7b,5,6,5,6,5,8b,4,5,4,5,4,1b,3,4,3,
{16}8x,7,6,5,1x,8,7,6,2x,1x,8x,7x,3x,2x,1x,8x,
{16}4x,,1b,1b,2b/6b,,,,5/6-4[8:1],,6,,8,,,,
{16}2-5[8:1]/5,,,,1,,1,,8/4-8[8:1],,4,,6,,,,
{16}1b,4,3,4,3,4,2x,4,2b,4,3,5x,3,4,2b,4,3,4,3,4,2x,4,3,5x,2b,4,3,5,2x,7x,4x,5x,
{16}1x,,1x,,8/3,,8,,6/1,,1,,8/2,,8,,
{16}1/7,,1/7,,2/6,,2/6,,3x,7x,4x,8x,3x,7x,4x,8x,
{12}2,2,6,1,1,5,8,8,4,7,7,3,
{12}8,1,2,7,8,1,6,7,8,5,6,7,
{1}4x>6pp3[8:15],,
{8}8xh[4:4],,,,,,,,
{8}E4,,,E5,,,E6,,
{8}8<2[4:5],,,,,,,,
{8},,,,5h[4:2],,,,
{16}2b-5[8:1],,,,6,,8b<5[8:1],,,,{32}4b,3,2,1,{8},8b-4[8:1]/4xh[4:1],
{16},,,,5x,,5x,,3,4,3,4,3,4,3,4,
{4}5x<4b[4:5],,,,,,,5,5s1[4:4]/4z8[4:4]
,,,,,,A7h[4:2]/B3h[4:2]/A2h[4:2]/B6h[4:2],,
{64},Cf,,,,,,,,,,,,,,,{32}1b/8b,2b/7b,3b/6b,4b-8V25[16:7]/5b,,,,,{4},,
{16},,{32}1b,8,7,6,{16},,4,,4x/2,,5x,3x,8x,,8x,,
{32}3b/7b,2/6,1/5,8/4>1[32:3],,,,,,,,,8b,7,6,5-2[32:3],,,,,,,,,1,8,7,6,,,,,
{12}8xh[1:0],6,4h[1:0],8x,2h[1:0],4,1xh[1:0],7,5h[1:0],1x,3h[1:0],5,
{8}8xh[1:0],,4/7,7,6/3,3,2/5,5,
{8}1/4,2/5,3/6,4/7,{16}5x,8,5x,8,5x,8,5x,8,
{16}4b>1[8:1],,,,1,,7b-3[8:1]*-4[8:1],,,,7b,,,,2b,,
{16}1x-4[8:1]/5x,,,,,,,,7/3,,2,6,4,,5x,,
{16}1x/8x,,,,2-4[32:3]/5,,2,,6,,,,1-5[8:1]/5,,1,,
{16}7,,,,2>5[8:1]/6,,2,,8-4[8:1],,,,1,,,,
{16}2/6,,,,7-5[32:3]/4,,7,,3,,,,8-4[8:1]/4,,8,,
{16}2,,2,,7/3,,7,,1,5,1,5,1,5,1,5,
{8}8b>3[8:1],2bx/4bx,,5b<8[8:1],4bx/7bx,,2b>5[8:1],1bx/3bx,
{8},7b>2[8:1],5bx/6bx,,{16}4b,,,1bx/6bx,,,2b/8b,,
{1}2bh[4:4]/8bh[4:4],
{12},,,7,4,5,2x-5[8:1]/6x-1[8:1],,,2b/6b,,,
{16}8b/4b,,2,6,1-5[8:1],,4,,1,,6,,7h[8:2]/4,,,,
{16}8,,5,3,8,,2/6,,1,5,3,4,2,8,5,6,
{16}1b,,4,3,7-4[8:1],,5,,7,,1,,6/2h[8:2],,,,
{16}1b,,3,4,8,,1b/7b,,6,5,8,,2b,6b,2b,6b,
{16}1,,7,3,8-4[8:1],,5,,8,,3,,5/2h[8:2],,,,
{16}1,,4,6,1,,3/7,,{24}8x,1,2,3,4,5,1x,8,7,6,5,4,
{16}7b-4[8:1],,,,3,,1b-5[8:1]*-6[8:1],,,,1b,,,,4xw8[8:1],,
{16},,,,,,,,7,3,7,3,{32}8-4b[8:1],1,2,3,4,5,6,7,
{16},,,,2b-5[8:1]/6b,,2,,7h[4:1],,,,4,,4,,
{16}8,5,6,5,7,,2-7[8:1],4,3,4,2,,5xh[4:1],,,,
{32}8b,1<6b[32:3],2,3,,,,,,,,,5b,4-8[32:3],3,2,,,,,4b>1[32:3],,,,,,4b,,,,,,
{32}7b,6b,5bw1b[32:3],4b,,,,,{16},,,,1x/8x,,,2x-5[32:4]/7x-4[32:4],,,2x/7x,,
{16},,,,3b/6b-4[32:3],,6,,2-5[8:1],,2,,7-4[8:1],,7,,
{16}1-5[8:1],,1,,8,,8,,7/3,2,1,8,7,6,5,4,
{16}7/3,,7,,6/2,,6/2,,5/1,,5/1,,8/4,,8/4,,
{16}1,5,4,6,2,8,5,7,1h[1:0],4h[1:0],3h[1:0],7h[1:0],2h[1:0],5h[1:0],4h[1:0],8x<1-5[8:34],
{8},{32}E3f,B3,C,B7,{8}E7,,,,,,
{8},,,,,,,,
{8},,(175),,(165),,(150),,
{8}(135),,,,(115),(95),(85),,
