&title=饒舌スキャンダラス
&artist=霞ヶ丘 詩羽
&first=0
&des=アミノハバキリ
&lv_5=13+
&inote_5=(160)
{1},
{16}
,,,,45,,,,{32}E1,E2,E3,E4,E5,E6,E7,E8,{16}E1f,,,,
4x-7[8:1],,,,34,,,,2-5[8:1],,2,,6,,7,,
8-4[8:1],,8,,3,,2,,17,,6,,45,,3,,
2/8-3[8:1],,,,78,,,,6-1[8:1],,6,,2,,3,,
4-8[8:1],,4,,7,,6,,53,,E1/E2/A1,,A1/E1/E2,,,,
3/5v2[8:1],,,,65,,,,7^4[8:1],,7,,3,,2,,
1q5[8:1],,1,,6,,7,,82,,3,,54,,6,,
7/1-6[8:1],,,,21,,,,3-5[8:1],,7-3[8:1],,3,,7b,,
,,,,,,,,,,{24}E6,B5,B4,{16}E4,,,,
3h[4:1],,,,4,,,5,4,,5-3[8:1]/6,,,,7-5[8:1],,
,,3,,2,,,3,4,,E2,,E1,,E8,,
3-5[8:1],,,,6,,,6,5,,45,,34,,2h[4:1],,
,,B4/E4,,,,6h[4:1],,,,E8/B8,,15,,,,
6h[4:1],,,,5,,,4,5,,4-6[8:1]/3,,,,2-4[8:1],,
,,6,,7,,,6,5,,E8,,E1,,E2,,
3-6[8:1],,,,37,,,8,8^5[8:1],,1,,2,,3h[8:5],,
,,A4,E5,A5,,E7,,E1,,,E3,,,E5,,
3,,3-5[8:1],,2,,1,,8-2[8:1],,7,,6,,5-1[8:1],,
,,5/7-3[8:1],,,,7/8h[4:1],,,,4,,15,,26,,
3,,3-8[8:1],,1,,3,,5-1[8:1],,8,,5,,2-4[8:1]*v5[8:1],,
,,2,,,,4v7[8:1]/7-5[8:1],,,,47,,,,18,,
6,,6-4[8:1],,7,,8,,1-7[8:1],,2,,3,,4-8[8:1],,
,,4/2-6[8:1],,,,2/1h[4:1],,,,5,,84,,73,,
2-8[8:1]/6-4[8:1],,,,26,,,,1q5[8:1],,8,,17,,6hb[2:1],,
,,E6,,E5,,E4,,,,18,,27,,,,
3-1[8:1]/4,,,,35,,,,7,,6,,5,,4h[8:3]/8,,
,,,,1^6[4:1],,,,6^3[4:1],,,,3,,,,
2-5[8:1],,,,28,,7-4[8:1],,,,5-1[8:1]/7,,,,6h[8:3]/5,,
,,E8,,E6,,E4,,E2,,,,3-5[8:1]/6-4[8:1],,,,
36,,,,27,,,3,4v6-8[4:1],,1,,2,,3,,
4h[4:1],,,,1,,28,,3,,45,,6,,57,,
8qq4[2:1],,,,4,,4,,A3,,A2,,A1,,A8,,
,,56,,47,,3,4,3,,12,,38,,,,
46,,7,,56,,1,,57,,8,,34,,2/5h[8:5],,
,,6,,7,,8,,1,,{48}A2,D3,A3,D4,A4,D5,A5,D6,A6,D7,A7,D8,{16}A8,,
5xb-8[8:1],,,,5/7-3[8:1],,,,17,,2-8[8:1],,,,2/4h[8:3],,
,,,,8-6[8:1],,2-6[8:1],,8-4[8:1],,2-4[8:1],,8,,2,,
5-1[8:1]*-7[8:1],,,,5,,,,2^7[8:1]/6^3[8:1],,,,6/2qq5[8:3],,,,
6bh[4:1],,,,,,8bh[4:1],,,,,,17,,2h[4:1]/6,,
,,4^1[8:1],,5,,46,,7-3[8:1],,2<4[4:1],,7,,2,,
,,8,,17,,26,,2-7[8:1]/6-3[8:1],,,,2/6p3[8:3],,,,
8h[8:1],,,,1h[8:1],,,,2,,3,,4,,1h[4:1]/5b,,
,,8,,27,,3b/6h[4:1],,,,A2f/B2/E2,,A7f/B7/E8,,,,
4xb-1[8:1],,,,4/2-6[8:1],,,,82,,7-1[8:1],,,,7/5h[8:3],,
,,,,1-7[8:1],,3/6-3[8:1],,1-4[8:1],,6-8[8:1],,1,,6,,
1p5[8:1]*v4[8:1],,,,1,,,,6^3[8:1]/2^7[8:1],,,,2/6qq1[8:3],,,,
2bh[4:1],,,,,,4bh[4:1],,,,,,35,,6h[4:1]/2,,
,,8^5[8:1],,1,,82,,3-7[8:1],,6>8[4:1],,3,,6,,
,,4,,53,,62,,6-3[8:1]/2-7[8:1],,,,6/2p7[8:3],,,,
4h[8:1],,,,5h[8:1],,,,18,,7-4[8:1],5,6,,7/8bh[4:1],,
,,4,,15,,2/6h[4:1],,,,5,,4,,3/7h[4:1],,
,,5-8[8:1],,4,,3,,2-6b[8:1],,7-3[8:1],,2,,7b,,
,,,,,,,,,,,,,,,,
,,,,45,,,,{64}A1,D2,A2,D3,A3,D4,A4,D5,A5,D6,A6,D7,A7,D8,A8,D1,{16}A1f,,,,
5x-1[8:1]*-2[8:1],,,,5,,,,8-4[8:1],,12,,83,,2,,
2-6[8:1],,35,,26,,7,,8^5[8:1],,4,,3,,2,,
1-5[8:1]/4-8[8:1],,,,14,,,,7-3[8:1],,7,,2-5[8:1],,2,,
6-1[8:1],,7,,4^1[8:1],,5,,6,,8b,,8b,,,,
4x-8[8:1]*-7[8:1],,,,4,,,,1-5[8:1],,87,,16,,7,,
7-3[8:1],,64,,73,,2,,1V35[16:3],,5,,6,,7,,
8w4[8:1],,,,8,,,,1-5[8:1],,6<4[4:1],,1,,6b,,
,,8x^5[8:1],,1,,2hb[4:1]/8,,,,1x^6[8:1],,2,,3hb[4:1]/1,,
,,2x^7[8:1],,3,,2/4hb[4:1],,,,3x^6b[8:1],,4,,5h[4:1]/3,,
,,8,,34,,28,,67,,3b-7b[8:1]/5b-1b[8:1],,1b/7b,,{64}3b/5b,Cf,,,,,,,
{16},,,,,,,,,,,,,,,,
