&title=Overflow
&artist=halv
&first=0.11
&lv_5=13+
&des_5=SCP2950
&inote_5=
(95.5){4},,2,7,
{16}1/8-4[4:3],,,2,,,{8}3,,,,,{2}2,
{4}6,3,
{16}8/1>5[2:1],,,8,,,{8}7,,,{4}6,
{2}3,{4}1,5,
{16}2/8,2,,,{8}3,{16}6/4,6,,,{8}7,{4}1b,
{16}7/1,7,,,{8}6,{16}3/5,3,,,{8}2,{4}8b,
(191){8}2,5,3,7,4,8,5,1,
,7,3,5,1,2,7,8,
{16}1,8,2,7,3,6,4,5,3,6,2,7,1,8,2,7,
{1}1bs5[2:1],
{8}3/7,3/7,5,1,6,2,3/7,3/7,
8,4,7,3,6,2,5,1,
2/6,2/6,4,8,3,7,6/2,6/2,
7,3,2,6,3,7,3,7,
8/4,8/4,7,3,6,2,5/1,5/1,
2,6,3,7,4,8,3,7,
2/6,2/6,3,7,2,6,5/1,5/1,
6,2,5,1,8,4,8,4,
{16}3b,6,{8}3,7,6,4,2,2,1/8,
{16},,2,1,{8}2,8,1,1,2,2,
{16}6b,3,{8}6,2,3,5,7,7,8/1,
{16},,7,8,{8}7,1,8,{16}8,7,6,5,6,7,
{8}8b,{16}2,1,{8}2,8,7,6,{16}5b,1,5,1,
{8}5,2,{16}6,1,{8}6,{16}7b,8,1,2,{8}3b,8,
{16},,8,7,{8}6,5,1,{16}2,3,4,5,{8}6b,
,5,4,3,2,{16}1,8,7,6,5,4,
{1}3b-6[1:1],
{8},,,,8,8,{4}8b,
{8}1-5[8:1],7,1,8-3[8:1],2,8-5[8:1],2,8,
,1,7,2,{16}6,3,6,3,5,4,{8}5,
8-4[8:1],2,8,1-6[8:1],7,1-4[8:1],7,1,
,8,2,1,{16}2,8,3,7,4,6,{8}5,
4-8[8:1],6,4,5-2[8:1],3,5-8[8:1],3,5,
,5,3,4,{16}3,5,2,6,1,7,{8}8,
5-1[8:1],3,5,4-7[8:1],6,4-1[8:1],6,4,
{12}5,5,6,6,7,7,8,8,1,1,2,2,
3b-6[2:7],,,,,7,,,,{4}2,
{12},3,,,,,{4}3,8,
{3}7,4,{12},{4}3,
{12},3,,,,,{4}2,2,
{12}6b-3[2:7],,,,,2,,,,{4}7,
{12},6,,,,,{4}6,1,
{3}2,5,{12},{4}6,
{12},6,,,,,{4}7,7,
{8}2h[8:3],,,3h[8:3],,,{4}4h[8:3],
{8},5,{4}6,{8}4,4,5,5,
4h[8:3],,,6,,,{4}3,
3,7,{8}7,6,5,4,
4,5,3,6,2,7,1,8b,
,2,1,3b,,8,7,4b,
{16}6,5,6,5,7,4,7,4,8,3,8,3,1,2,{24}1,2h[3:1],{4},,{64},,{96},{32}2b,
3,4,5,6,7,8,1,,,,,,,,,{8}8/1b-5[8:1],
2b/7-4[8:1],1,7,{16}1,2,{8}3-7[8:1]/5-1[8:1],4b,3b/5b,
,4,7/1-4[8:1],8,{4}1b-6[8:1],1b,
3-8[8:1],{8}3b/5,6,7,8,1/7,2,
{16}2b/7,3,{8}4,{16}6,3,{8}8,1b-5[8:1]/7b-4[8:1],8b,{4}1b/7b,
{8}7-3[8:1],6/1,7,2>5[8:1],8,{16}8/2,7,{8}6,1-6[8:1],
7,1,7,2,8,1,7/2,6/3,
{16}7b,8b,{8}7b,6/3,{16}2b,1b,{8}2b,3/7,{16}1b,8b,{8}1b,
2/6,{16}8b,1b,{4}8b,{32}1b/8,7,6,5,,,,,8b/1,2,3,4,,,,,{8}1/8b-4[8:1],
7b/2-5[8:1],8,2,{16}8,7,{8}6-2[8:1]/4-8[8:1],5b,6b/4b,
,1,2/8-5[8:1],1,{4}8b-3[8:1],8b,
5b-8[8:1]/4b-1[8:1],4b/5b,{8}3b/6b,8b-5[8:1]/1b-4[8:1],,8b/1b,
,1b/8b,{16},,,,1b/8b,,,7b/2b,,,{8}6b/3b,
5/4,4,4/3,3,3/2,2,2/1,1,
{32}8,7,{16}6,,,{4}8b,{8}2,2,7,7,
{16}1b/2b,,,3/4,,,{8}5/6,{16},7/8,,,{4}7b/8b,
{16}6/5,,,4/3,,,{8}2b/1b,{32}8,7,6,5,4,3,2,1,8,7,6,5,,,,,{8}1b,
,,7,,,2,1/8,
,7/2,,3/6,,4b/5b,,,8b-4[8:1],
7/2,8/1-5[8:1],2,1,{16}6,7,{8}8,8,
{16}1/8,2/7,{8}3/6,2/7,2,8b,8b,{4}8b,
2-5[8:1],{8}2/8,7,6q2[8:1],5,6,{16}3,4,
{8}5,1,1,1,8,3,{4}4,
{8}7b/5b,{16}8,1,{8}8,2b/4b,{16}1,8,{8}1,6b/5b,{16}1,2,
{8}1,3b/4b,{16}8,7,{8}8,{32}1b/8,7,6,5,,,,,,8b/1,2,3,{8}4,
8/1b-5[8:1],2b/7-4[8:1],1,7,{16}1,2,{8}3-7[8:1]/5-1[8:1],4b,3b/5b,
,8,7/1-4[8:1],8,{4}1b-6[8:1],1b,
3-7[8:1],3b/5,{8}1,8-4[8:1],,8b/2,
{4}3,8,{16}1b/2b,,,3b/8b,,,{8}7b/4b,
5,4,6,3,7,2,8,1,
{16}8/2,7/3,{8}6/4,{16}6/4,7/3,{8}8/2,5/2,3/8,{4}7/4,
{16}7b/8b,,,4b/3b,,,{8}1b/2b,{16},6b/5b,,,{8}1b/8b,3b/6b,
{16}1b/2b,,,5b/6b,,,{8}7b/8b,{16},3b/4b,,,2b/6b,1b/5b,8b/4b,7b-2[4:9]/3b-6[4:9],
E
