&title=エリカの憂い
&artist=香椎モイミ
&first=0
&des=Annswers
&des_5=
&lv_5=13+
&inote_5=(71){4},{8},,,,7xh[8:7]/B2,B3,
B4,E2,E3,E4,{16}4,3,2,1,8-4[8:1],7,{8}6p4[8:1],
8b,6b,2-4[8:1],1,2/7,7-5[8:1],8,2/7,
2-5[8:1],1,2/7,7-4[8:1],8,7/2,1>4[8:1],2,
1/7,8<5[8:1],7,2/8,1>4[8:1],8<5[8:1],1,8,
3>3[4:3],3,{4}3/5h[8:1],{8}6,6xh[8:1],,7,
7h[8:3],3,2,1pp4[4:3],1,1/7,{4}6h[8:1],
{8}5pp8[8:3],5h[8:1],,,{4}4h[8:1],{8}4/8,3/7pp2<7[4:5],
,3,{4}3h[4:1],{8},4h[4:1],,,5h[4:1],
,,5qq2[8:9],,5,{4}5xh[4:1],
{8},6xh[4:1],,,7xh[4:1],,,3,
2,1,{16}1/8,{32}2,3,{16}4,{32}8,7,{16}6,{32}2,3,{8}4h[4:1],{4}6<3>6[4:3],
{8}4h[16:1],4h[16:1],5h[16:1],5h[4:1],{16},,,4,{4}3h[4:3],
{8}5,6,7,8,{2}1w5[8:3],
{16},,,,B1/B2,{48}B7,B6,B5,{16}B4,B2/E3,B7,B3/B4,{8}B6,Cf,{16}8,8,
{8}3/8<5[8:1],7,8/4>1[8:1],3,4/7<4[8:1],{16}8,8,{8}7/3-7[8:1],2,
3/1-6[8:1],1,1/4-1[8:1],{16}2,3,{8}4/5<8[8:1],4,{16}5/1-5[8:1],2,{8}3,
1/8<5[8:1],1,8/2,1w5[8:1],E3/E8,A1,,5,
{4}2/5<8[8:1],{8}5/2,2>5[8:1],,7/2,{4}8-4[8:1],
{8}1/8,8pp5[16:3],,8/7,{32}7h[8:1],,,,,4,3,2,1,8,7,6,5,8,7,6,
5,4,3,2,5,4,3,2,{8}1b<6b[8:1]*>4b[8:1],1bw5b[8:1],1b,1b,{16},,3,2,
{8}6/1>4b[8:1],2,1/5<8b[8:1],6,5/2>5b[8:1],{16}1,1,{8}2/6-2b[8:1],7,
6/8-3b[8:1],8,8/5<8b[8:1],{16}7,6,{8}5/4-1b[8:1],5,{16}4/8,7,{8}6,
5/1>5b[8:1],5<5b[4:1],,,,,Cf,7,
7/4>1[8:1],4,4/7,7<4[8:1],7,2/7,1pp5[4:1],1,
8/1,8>7[8:7],8,{16}4,4,4h[8:1],,,4,3x,2x,{8}2xh[4:1],
,,{4}1h[8:5],{8}7,7h[4:1],,,Cf/8w4[4:1],
,,,,2-4[8:1]/6-8[8:1],2-8[8:1]/6-4[8:1],6/2,
2/6,Cf,{4}5xw1b[8:1],A5f,{8}7h[4:1],1x-5[8:1],
,1/7,8h[4:1],4,3,2xh[4:1]/E8/B8/B7,,7V52[4:1],
1x,2V47[4:1],1,1h[8:1],{32},,,,2,8,3,1,{16}4xh[2:1],,,2,
1,8,{8}7qq4[4:1],7,{16}3x/7x,2x,{4}1xh[8:1],{8}5h[8:1],{32}1,,,5x,
{8}1xv4[4:1],{16}5x,6x,{4}7/1xv6[4:1]*v6[4:1],{8},,3x,2x,
6x/1x,6,{16}6h[4:1],4,{8}3,2qq7>2[2:1],2,{16}5/2,4,5,4,
5,6,5,6,5,5,4,5,3b,4,5,4,5,6,5,6,
5h[8:1]/7-3b[1.0563##0.4225],{64},,,,,,,,(35.5),5x,,,(71){8}7bx/5bx-2[8:1],5,5/8<5[8:1],7,8/4>1[8:1],{16}3,3,
{32}4/8h[8:1],,,,,7,6,5,8/4-1[8:1],3,2,1,8/4-7[8:1],7,6,5,{8}4,4,8-4[8:1],7,
8/6-2[8:1],5h,6/1-5[8:1],8h,1/4,8w4[8:1],2/6,8,
,5/3h[8:1],{16}5<8[8:1],4,5,4,5,{32}4x,3x,{16}2x>5[8:1],1,2,1,2,{32}1x,8x,
{16}7x<4[8:1],4,7,4,7,{32}4x,3x,{16}2x>5[8:1],5,2,5,{8}2,7h[8:1],{32}5,6,5,6,
4,5,4,5,3,4,3,4,2,4,3,5,4,6,5,7,{8}8b<5b[8:1]*>3b[8:1],8bw4b[8:1],8b,8b,
A4f/A5/A3,{16}4/2,2,{8}2b/4b-7b[8:1],4,4/1>4b[8:1],2,1/5<8b[8:1],{16}6,6,
{32}5/1h[8:1],,,,,2,3,4,1/5-8b[8:1],6,7,8,1/5-2b[8:1],2,3,4,{8}5,5,1-5b[8:1],2,
1/3-7b[8:1],4h,3/8-4b[8:1],1h,8/5,1w5b[8:1],7/3,1,
,4/6h[16:1],{32}4-8b[8:1],3,2,1,8,7,6,5,{8}4,7-3[8:1],8/6,7,
{32}1-5b[8:1],2,3,4,5,6,7,8,{8}1,{16}7-3[8:1],{32}7,4,{16}7,4,{8}7,{4}1>7[8:3],
{8},8<3[8:3],,,2>6[8:3],,,7<3b[8:3],
,,{4}2h[2:1],{8},6h[4:1],,1pp5[8:3],
{1}7pp5b[4:1],
,,{4},,,{16}
E
