&title=光焔のラテラルアーク
&artist=大国奏音
&first=0.14
&des=S.zip
&des_5=S.zip
&lv_4=13
&lv_5=14+
&inote_4=(220){4},,,,,,,,{1}2h[4:3]/7-4[2:1],
1h[4:3]/5h[4:3],
8h[4:3]/2-6[2:1],
{4}3h[2:1]/7h[2:1],,,2/6,
{1}1>4[4:3],
8<5[4:3],
1-5[1:1],
{8},,,,5,4,3,2,
5/1,5/1,5/1,5/1,,,2/6,2/6,
2/6,2/6,,,1/6,2,3/8,7,
6/1,1/6,1/6,1/6,,,8/3,8/3,
8/3,8/3,,,{4}1>4[4:1],8<5[1:1],
{8},,,,,,,,,,,,,1,
8,2,
{4}7-3[8:1],2-6[8:1],8-5[8:1],1-4[8:1],
7x<4[8:1],2x<7[8:1],5x>2[8:1],1x-5[4:3],
{1}1xh[4:3],
{16}1,8,1,8,1,8,1,8,1,8,1,8,{4}1,
{1}C,
{4},,,2>5[2:1],
2h[2:1],,,6<1[2:1],
{8}6h[2:1],,,,,,,2-6[8:5],
{1}2,
{8}8-5[4:3],,,,,1,,,2h[8:3],
,,6,6,,,5,
5,,,4,4,,,3,
{4}4,{8}5-1[8:1],5,,,,,1/2,
1/8,,8/7,{4}8/1,5/4,
1-5[8:1]/8-4[8:1],,,3-8[8:1]/6-1[8:1],
{8},,,2-5[8:1]/6-1[8:1],,,,,3>8[8:1]/7<4[8:1],
,,,,7>2[8:1]/2-6[8:1],,,,,,,,5>2[8:1]/4<7[8:1],
,,,,,7-2[8:1],
7,,,8-5[8:1],
8,,,2-7[8:1],2,,,3/6>3[4:1],
2,1,8,7,,1,1-5[8:1],1,
8-4[8:1],,,2>5[8:3],,,,,,,,,{2}1-5[8:1],
4-8[8:1],7-2[8:1],
1>4[8:1],5-1[8:1],
{1}8<5[2:1],
{2}5-1[8:1],{4}3-7[8:3],7<4[8:1],
{2}7>2[8:1],6-1[8:1],
{1}2-5[2:1],
7-4[2:1],
{8}1>4[8:1],1,6,6,5,5,4,4,
8<5[8:1],8,3,3,4,4,5,5,
4>1[8:1],4,7,7,8,8,1,1,
5<8[8:1],5,{12}2,,3,{6}3,{12}4,4,,5,
{1}5/4-1[2:1],
4/5-8[2:1],
6/2-7[2:1],
3/7-2[2:1],
{8}6/2h[8:7],6,,6,{4}6,{8}6,6,
,,{4}1-4[8:1],5-8[8:1],2,
{8}3b/4b,3b/4b,,6b/5b,{4}5b/6b,{8}1b/8b,2b/7b,
,,,,,,,,{4}1>4[8:1],
1<6[8:1],1-5[8:1],1,
8-4[8:1],8<5[4:1],5>2[4:1],2<7[4:1],
{2}7-3[4:1],{4}1-5[4:1],1,
8-4[4:1],8,2>5[4:1],2,
8<5[4:1],5-1[4:1],1>4[4:1],4-8[4:1],
8<5[4:1],5-2[4:1],2-7[4:1],7-4[4:1],
{2}4-8[4:1],{4}1>4[4:1],1,
7<4[4:1],7,2-6[4:1],2,
{8}7,{16}1x,1x,{8}8,{16}2x,2x,{8}7,7,6,6>3[8:1],
,,,,{2}2<7[8:1],
{8}6,{16}4x,4x,{8}5,{16}3x,3x,{8}6,6,7,7>2[8:1],
,,,,{2}3<6[8:1],
{16}7,8,7,8,{8}7,1>4[8:1],{16},,,,,,,,3,
4,3,4,{8}3,5<8[8:1],,,,,{1}1-5[2:1],
{16}8,7,6,5,4,3,2,1,8,7,6,5,4,3,2,1b,
{1}8h[1:3],
,,,2-6[4:7],
,,,8-4[4:7],
,,4,
1>4[4:7],
{4},,,,8<5[8:13],
,,1,
{1}1>4[2:1],
{4}1,2,3,4,
{2}4-8[2:1],{4}6,7,
7-3[2:1],,,1,
{1}1-5[2:1],
{4}7<4[2:1],,,1,
{1}1>4[2:1],
C,
{2},1-5[1:1],
{1}1h[2:1],
{4}8b/7b,4b/3b,1b/2b,5b/6b,
{8},2b/3b,,2b/1b,{4}8b/1b,4b/5b,
2b/7b,1-4[8:1],5-8[8:1],2-7[8:1],
6-3[4:1],3-8[4:1],8-5[4:1],4-1[8:1],
4b,7<4[4:1],4>1[4:1],1-5[4:1],
8-4[8:1],8-5[8:1],8-3[8:1],8<5[8:1],
8,1-4[4:1],4-8[4:1],8-5[4:1],
5-1[4:1],1>4[4:1],{2}4-8[4:1],
{8}7b,{16}6,5,{8}4,{16}3,4,{8}5,6,7,7-3[8:5],
,,,,,,,,2,
{16}2,1,{8}8,{16}7,8,{8}1,2,3,3>8[8:5],
{16},,,,,,,,,,,,,,,,3,
4,3,4,{8}3-7[8:1],3,{16},,,,,,,,6,
5,6,5,{8}6-2[8:1],6,{16},,,,,,,,1,
8,1,8,1,8,1,8,1,8,1,8,1,8,1,8,
1,2,3,4,5,6,7,8,1,2,3,4,5,6,7,8,
{8}1/5,5,6/2,2,,,8/4,4,
3/7,7,,,{4}1/2,5/6,
{8}7/1,7,8/2,8,,,2/8,2,
1/7,1,,,{4}3/5,7/1,
{8}4/6,4/6,5/3,5/3,,,2/8,2/8,
1/7,1/7,,,{4}8/4,6/2,
{8}3/4,3/4,3/2,2/3,,,8/7,7/8,
7/6,6/7,,,{4}1/5,3/7,
{8}2-5[8:1],2,6,6,7-4[8:1],7,2,2,
1-5[16:3],1,7,7,8-4[8:1],8,2-6[8:1],2,
5<8[8:1],5,3,3,4>1[16:3],4,5,5,
6-1[8:1],6,4,4,3-8[8:1],3,{4}6<1[4:5],
{8},,,,,,,,,,,,,1/8,
1/8,1/8,
1-5[8:1],1,8-4[8:1],8,2-7[8:1],2,6-3[8:1],6,
{4}1>4[8:1],6<1[8:1],3<6[8:1],8-4[4:3],
{1}8h[4:3],
{16}1,2,3,4,5,6,7,8,1,2,3,4,5,6,7,8,
{1}C,
5,
,4,
3-6[4:11],
,,{4},{16},,,C,
E
&inote_5=(220){4},,,,,,,,1h[4:3]/E5,
E6,E7,E8,
4xh[4:3]/D1/E1,{8},,,,8,7,
{4}6h[4:3]/E4,E3,E2,E1,
{2}5xh[2:1]/C,{4}3,2,
1>4[4:3],6,7,8,
7-3[4:3],2,2,1,
{1}8pp4[1:1],
{16},,,,,,,,4,5,3,6,2,7,1,8,
{8}2x/7x,1,2/6,7/3,,,6x/2x,8,
7/3,2/6,{16},,2,3,{8}4x/8x,7,2/6,5,
3x/7x,2,5/1,3/7,,,6x/2x,7,
4/8,2/6,{16},,1,2,{4}7/3pp8[2:3],7pp4[4:5],
{8},,,,,,,,,,,,,4/5,
6/3,7/2,
{16}1x,8,1,8,3x,4,3,4,8x,7,8,7,4x,5,4,5,
2x,3,4,5,8x,7,6,5,1x,2,3,4,5/1,6,7,8,
{24}1x/D5,A4,D4,A3,D3,A2,D2,A1,D1,A8,D8,A7,D7,A6,D6,A5,D5,A4,D4,A3,D3,A2,D2,A1,
2x/D1,3x,4x,5x,6x,7x,8x,1x,2x,3x,4x,5x,6x,7x,8x,1x,2x,3x,{8}4x,{16}E1,C,
{1}E5,
{4},,,2>5[8:5],
6h[16:5],,,8-4[4:3],
{8}8,,,2,,2,,3-7[8:5],
3,,,4,,5,,,6<1[2:1],
,,,,3h[8:3],,,6h[8:3],
,,5,5h[8:3],,,4,
4h[8:3],,,3,3h[8:3],,,6,
{4}B6,{8}2,B2,,C,,,1x/5x,
3x/7x,,8x/4x,{4}6x/2x,C,
5>7[2:1],,,3h[4:1],
{8}6p7[8:3],,,4>1[8:1],,4,,8,
8<3[8:3],,,3q8[4:1],,2,,1,
1pp5[8:5],,,,,7h[8:3],,,4>8[2:1],
,,1<5[8:5],1,,,6>2[8:5],
6,,,3>7[8:5],3,,,7,
6,5,4,3,,1/5,2,3,
{2}B5/E5/B4/Ch[8:3],{16}D1,D2,D3,D4,D5,D6,D7,D8,
{2}D1f,{16}E8,E7,E6,E5,E4,E3,E2,E1,
3x,4,5,6,7,8,1,2,{2}3/7xh[2:1],
{16}E3,E2,E1,E8,E7,E6,E5,E4,7x,8,1,2,3,4,5,6,
{1}7/3xq5[2:1],
{16}8x,7,6,5,4,3,2,1,4x,5,6,7,8x,1,2,3,
{2}4/8xqq4[8:5],3x-1[8:1],
{16}2x,3,4,5,6,7,8,1,2x,1,8,7,6,5,4,3,
8x,7,6,5,4,3,2,1,8x,1,2,3,4,5,6,7,
{8}8x/4x,8x/4x,{24}E7,B6,B5,E3,B3,B4,{8}E8/B8,B4/E4,B6/E6,E2/B2,
3x/7x,3x/7x,{24}E3,B3,B4,E7,B6,B5,{8}B1/B2,B6/B5,B3/B4,B8/B7,
2x/6x,2x/6x,{24}E7,B6,B5,E3,B3,B4,{8}E1/B8,B2/E3,E7/B6,E5/B4,
4x/8x,4x/8x,{12}7x,5,6,2x,4,3,8x,6,7,
{2}5x/1>5[8:3],{4}7p3[8:3],7,
{2}1>5[8:3],E7/B6,
1x/5pp5qq5[1:1],{4}8,1,
{2}2x,3h[4:7],
{8}E7,B6,,E3,{4}B3,{8}E1,C,
,,{4}8x,7x,6x,
{8}1b/5b,3b/7b,,8b/4b,{4}2b/6b,{8}1b/7b,3b/5b,
,,{4}Cfh[4:3],E5/B4/B5,B8/B1/E1,
7bv4[8:1],7/3v8[8:1],3/6<1[8:1]*>3[8:1],6,
2-6[8:1],2/8-4[8:1],8<5[8:1]/5>2[8:1],5/8,
1-5[8:1],1/5,{16}E6,B6,B7,E8,E2,B2,B3,E4,
8,7,6,5,3,2,1,8,6,5,4,3,2/6,1,8,7,
{4}6/2<7[8:1],2/6>3[8:1],6/1-6[8:1]*-4[8:1],1,
5<8[16:3],5>2[8:1],5-1[8:1],5w1[8:1],
5,3/7,{16}E1,B8,B7,E7,E5,B4,B3,E3,
7,6,5,4,1,2,3,4,8,7,6,5,4/8,3,2,1,
{8}8/C,{16}3x,4,{8}3,{16}2,1,{8}2-6[8:1],8pp4[16:11],2,8,
{16},,,,,,B8,C,{4}B4,{16}1,8,1,8,
{8}2/7,{16}6x,5,{8}6,{16}7,8,{8}7-3[8:1],1qq5[16:11],7,1,
{16},,,,,,B1,C,{4}B5,{16}1,8,1,8,
3x,4,3p5[8:3],2,{8}3,3/5,,E8,E7,E6,
{16}7x,8,7p8[8:3],6,{8}7,7/1,,E4,E3,E2,
{16}1x,5,1x,5,1x,5,1x,5,1x,5,1x,5,1x,5,1x,5,
{32}1x,2,3,4,5,6,7,8,1,2,3,4,5,6,7,8,6/1,5,4,3,2,1,8,7,6,5,4,3,2,1,8,7,
{4}6b/2b,{8}A5,A4,,E6,E5,E4,
,E7,C,E3,,E8,E1,E2,
,E7,C,E3,,E6,E5,E4,
{1}C,
{8}3q5[1:3],,,D6,E6,,,A6,
B6,,,D7,E7,,,A7,
{1}B7,
{8},,,,,4,5,6,
7p4[4:13],,,D2,E2,,,A2,
B2,,,D3,E3,,,A3,
{1}B3,
{8}C,,,,,2,1,8,
7pp4[2:3],,,D4,E4,,,D3,
E3,,,D2,E2,,,D1,
{4}E1,,,C,
{1}4w8[2:1],
{4}2x,3x,{16}4x/D6,E6,,,{4}3x,
{2}2x,{16}3x/D6,E6,,,{4}4x,
3x,2,{16}3/D6,E6,,,{4}4x,
{8}3x,5,4,5,{16}3/D6,E6,,,,,,,{4}2x,
3,{16}4/D6,E6,,,{4}3x,
{8}4x,5,3,5,{16}4/D6,E6,{32},,,,,,,,,,,,E8,
C,{16}E4,{1},{4},{8},{2}B4/B5/E5f/Cfh[2:1],
8bh[8:7],4bh[8:3],
{24}8bv3[8:1]/4bv7[8:1],7/3,6/2,5/1,,,{4}4bx/8bx,2b-5[8:1]/6b-1[8:1],2b/6b,
{8},3x/7x,,2q6[8:1]/6q2[8:1],{2}2<7[8:1]/6>3[8:1],
{4}Cf,{16}E5,E6,E7,E8,1,2,3,4,5/8,7,6,5,
4/2,3,4,5,6/2,7,8,1,2/6,5,4,3,2/6,1,8,7,
{4}6b<1[8:1]/2b>5[8:1],6-2[8:1],6/8x-4[8:1],8/1>4[8:1],
5/1<6[8:1],1/5-1[8:1],5-8[8:1]*-2[8:1],5,
3/7,{16}E1,E8,E7,E6,4,3,2,1,7/8,6,5,4,
1/3,2,3,4,5/1,6,7,8,1/5,4,3,2,1/5,8,7,6,
{8}5/1,{32}1,2,3,4,{8}7,{32}2,3,4,5,{8}8-4-7[4:1],1,8,3,
{16},,,,2,6,2,6,3,7,3,7,{4}4/8,
{8}4/8,{32}8,7,6,5,{8}2,{32}7,6,5,4,{8}1-5>2[4:1],8,1,6,
{16},,,,7,3,7,3,6,2,6,2,{4}5/1,
{16}7,8,7p1[8:3],6,{8}7,7/3,,4,3,2,
{16}3,4,3p4[8:3],2,{8}3,3/7,,8,7,6,
{16}1b,5,1,5,1,5,1,5,1,5,1,5,1,5,1,5,
{32}2b/6bxh[2:1],3,4,5,,7,8,1,2,3,4,5,,7,8,1,2b,3,4,5,6,7,8,1,2,3,4,5,6,7,8,1,
{8}2b/6b,5,3>8[8:1]/7<4[8:1],2/6,,,7/3,4,
2v5[8:1]/6v1[8:1],7/3,,,{4}8xw4[8:1],8x,
{8}2/6,5,3-8[8:1]/7-4[8:1],2/6,,,7/3,4,
2v3[8:1]/6v7[8:1],5/1,,,{4}1xw5[8:1],1x,
{8}3/7,6,5<6-8[8:1]/1>2-4[8:1],2/6,,,6/2,3,
4qq2[8:1]/8qq6[8:1],7/3,,,{4}5xw1[8:1],5x,
{8}7/3,6,1v3[8:1]/5v7[8:1],2/6,,,2/6,3,
8<5[8:1]/4>1[8:1],7/3,,,{4}8xw4[8:1],8x,
{8}2-5[8:1],6-1[8:1],2,6,4,{16}3x,2,{8}1-5[16:3],6-1[8:1],
1,6,2,{16}3x,4,{8}5-1[8:1],7,5,7,
8-4[8:1],3-8[8:1],8,3,7,{16}6x,5,{8}4-6<7[8:1],1>2-4[8:1],
4,1,8,{16}7x,6,{4}5qq7[2:3],1qq3[4:5],
{1}C,
{8},,,,,2/6,3/7,4/8,
{16}2x,1,3,8,4x,5,3,6,8x,7,1,6,3x,4,2,5,
1x,2,3,4,7x/5,6,5,4,3/1x,2,3,4,5/1x,6,7,8,
{24}5x/1,4,3,2,1,8,7,6,5,4,3,2,1,8,7,6,5,4,3,2,1,8,7,6,
1x,5x,1,5x,1,5x,1x,5x,1,5x,1,5x,1x,5x,1,5x,1,5x,1x,5x,1,5x,1,5x,
{1}C,
{32}6xh[4:3]/B3,B4,{16}B5,,,,,,,,,,,{8}1,2,
{4}3h[4:3]/E8,E7,E6,E5,
{32}6xh[1:1]/B2,B3,{16}B4,{4},,,{16},,{32}E5,
D5,,,,,,,,,,E7,,,,,,,,,,,{16}C,{32},,,,,,,,E3,
,,,,,,,,,,B6,,,,,,,,,,,{16}B5,{32},,,,,,,,,B4,
,,,,,,,,,,,B3,{4},,,{16},,,{32},3-6[32:75],
E
