&title=影色舞 (Short Ver.)
&artist=MyGO!!!!!
&first=0.0166
&des_1=BluesDawn
&des_2=BluesDawn
&des_3=BluesDawn
&des_4=BluesDawn
&des_5=BluesDawn
&lv_5=13+
&des_6=BluesDawn
&des_7=BluesDawn
&des=BluesDawn
&inote_5=(166)
{1},
{8}3,4,5,6x,,3,4,5,6x,,3,4,5,6,7x/8x,,
{8}6,5,4,3x,,6,5,4,3/1hx[1:0],2hx[1:0],3hx[1:0],8-3[8:1]/4,,4x,4x,,
{8}34,2,7x/1,8,65,7,2x/8,3,6-4[8:1]/4,6,3-1[8:1],3,8v5[8:1]*-6[8:1],,8,,
{8}34,2,7x/1,6,45,3,1x/2,8,7-5[8:1]/5,8,3-1[8:1],4,8x,B8/B7/E8,B8/B7/E8,,
{8}65,7,2x/8,1,34,2,7x/1,6,3-5[8:1]/5,3,6-8[8:1],6,1v4[8:1]*^4[8:1],,1,,
{16}65,,7,5,7,5,6,4,6,4,5,3,Cf,,,,2b/6b,,3b/7b,,,,1b/5b,,,,,,,,,,
{4}2-4[8:1]/5,5,5-2[8:1]/6,B6/B7,1-5[8:1]/7,7,5V31[16:3]/8,B8/B1,
{4}7-5[8:1]/8,8,4-7[8:1]/2,2q5[8:3],27,8x,
{8}1,1,8-6[8:1],3,8x,,3,3,4-6[8:1],2,4x,,1,2,3,4,5-1[8:1],,6x/5x,,
{8}8x^5[8:1]/2x,8x/2x,,3,34,25,61,,
{16}8x/3x,,3,7,2,6,1bpp3[8:1],,,,B5/E6/B6,,B5/E6/B6,,,,
{4}7-5[8:1]/4,4,4-7[8:1]/3,3x,8-4[8:1]/2,2,4<8[16:3]/1,1x,
{8}2-5[8:1]/1x,,5qq1[2:1],,6,7,8,1<5b[4:1]*>5[4:1],,,,,
{8}8,8,1^4[8:1],6,1x,,6,6,5^2[8:1],7,5x,,6V47[16:3],,4,3,2-6[8:1],7>5[8:3],2x,7x,,8qq5[2:1]*pp3b[2:1],8,,,,,,
{16}1x/6x,,6,2,7,3,8bp6b[4:1],,,,4x,,4x,,,,
{16}2b/4b,,5-1[8:1],3,5,3,5,,,,3x,,2x/1b,,,,
{16}5x,7x,4-8b[8:1],6,4,6,4b,,,,6x,,7b/2b,,,,
{4}1q5[8:1]/6,1x/8x,8p4[8:1]/3,8x/1x,5^8[8:1]/1^4[8:1],1x/5x,
{16}8x/4x,,7,3,6,2,5,1,4h[8:1],,2x,5h[8:1],,3x,6h[8:1],,4x,7h[8:1],,5x,8h[8:1],,6x,,74,,63,,52,,4,2,5,3,6,4,7,5,8,4,
{48}1bx,B1,Cf,B5,A5,,,,,,,,
{4},
{16}4,5,3,6,4b,,,,
{8}7x/3x,6x/2x,7x/3x,6x/2x,,51,62,73,8-5[8:1]/4,7,4-1[8:1]/8,3,
{16}48,7,6,5,4x-7[8:1]/1x-5[8:1],,,,
{16}4b^1[8:1]/1b,,,,8-4[8:1]/4,,,,3V52[16:3]/8,,,,5x,,7x-3[8:1],,,,3pp6b[8:3]/7,,,,8,,1,,2,,3x-8[8:1],,,,3x/7x-3[8:1],,,,3x^8b[8:1]/7x^4[8:1],,,,7x/3x,,,,5x,,6x,,2>8[4:1]/7,,,8,2,,1x,,1x-6b[8:1]*-4[8:1],,,,,,,,
{16}7b,,3,4,2,,6,5,7,,8pp4[8:3]/4,,84,,,,,,4,,3,,2,,16,,2,,35,,6,,7/8^3[8:1],,5,,6,,7,,84,1,2,3,4,5,6bx/2bx,,,,
{16}7,6,5,,2,3,4,5,6,7,8x-4[8:1]/6x-1[8:1],,,,
{16}6b^3[8:1]/8b,,,,2-6[8:1]/6,,,,5V74[16:3]/2,,,,7x,,1x^4[8:1],,,,4qq1[2:1]/1,,,,7,,8^5b[8:1],,,,8x,,,,4x/8x-3[8:1],,,,7x/8x,,6,,75,,64,,53,,4/2>7[4:1],,,,E3,E4,E5,E6,E7,,8bx-4b[8:1]*-3[8:1],,,,8b,,,,
{16}5b^2[8:1]/8b,,,,1-5[8:1]/5,,,,4V63[16:3]/1,,,,6x,,1x^6-4pp8[4:3],,,,4/1,,3,,2,,1x^4[8:1],,,,1x,,,,3b/7b,,,,3x,,2x,,6/1,,E7/B7/B8/E1,,E7/B7/B8/E1,,,,7V53-1[4:1]/2,,,1,7,,8x,,8xw4b[8:1],,,,8b,,,,
{8}65,7,2x/8,1,34,2,7x/1,6,3-5[8:1]/5,3,6-8[8:1],6,1v4[8:1]*-3[8:1],,1,,
{8}65,7,2x/8,3,54,6,8x/7,1,2-4[8:1]/4,1,6-8[8:1],5,1x,E1/B1/B2/E3,E1/B1/B2/E3,,
{8}34,2,7x/1,8,65,7,2x/8,3,6-4[8:1]/4,6,3-1[8:1],3,8v5[8:1]*^5[8:1],,8,,
{16}34,,2,4,3,5,4,6,5,7,4,8,Cf,,,,1b/2b,,3b/4b,,5b/6b,,7b/8b,,,,,,,,,,
