&title=Redolent Shape
&artist=Sanaas
&first=0
&des=ラビねこ
&lv_5=14
&inote_5=(150)
{4},{1},{4},,,{16}4,
5,3,4,,4/3h[16:9],{8},{16}4,{8},{16}4,{8},4,
3/4,2h[4:3],{16},1,{8},{16}3,{8},{16}4,{8},5,
{16}5,4,6,5,,5/6h[16:9],{8},{16}5,{8},{16}5,{8},5,
6/5,7h[8:3],{16},8,{8},{16}6,{8},{16}5/6,{8},4/5,
{16}3,4,3,7h[8:1],,5,5,6,{8}2h[8:1],{16}4,3,{8}4,2/8,
{16}6,5,6,2h[8:1],,4,4,3,{8}7h[8:1],{16}5,6,{8}5,7/1,
{16}2,4,3,4,1,5,4,5,{32}8,1,2,3,4,5,6,7,8qq3<1b[4:3],1,2,3,4,5,6,7,
{4}8x,{2},{4}5x,
{1}5b/7bqq4[4:3],
2qq7[4:3],
{8}5x,6,7,8,{16}1x,2,3,4,{32}E5,E6,E7,E8,E1,E2,E3,E4,
{4}Cf,{16}E4f/D4,{8},{16}D8f/A8/A7,{8},2,4-1[8:1]/5-8[8:1],3/6,
{4}4b/5b,{16}6h[16:3],{8},{16}3,5V31[16:3],4,{8},5/6,6,
7-4[8:1],8,4-7[8:1],3,2-6[8:1],1,{4}2/8,
{8}7-5[8:1],4,{16}7,8,,8,{8}4-8[8:1],2>5[8:1],{4},{24}B2,
B1,B8,B7,{12},{16}4x/3x,{8},{16}2x/1x,{8},7x/8x,{16}6xV48[4:1],4,5,3x,
{8}6,2,{16}3h[16:3],{8},{16}6,4-6-8[16:3],5,{8},4/3,3,
2-5[8:1],1,5-2[8:1],6,7-3[8:1],8,{4}7/1,
{8}4/2<7[8:1],{4},{8}4>5[4:1],{2},{16}3/1,
{8},{16}6/8,{8},4pp5[4:1]/2-4>8b[4:1],{2},{4}7bh[4:1],
{16}5,6,,3,4-2[8:1],1,,5,{8}4,7,
5/6h[8:1],8,4/3h[8:1],1,{16}5-1[8:1],6,,4,{4}5b,
{8}2-4[8:1],5,{16}2,1,,1,{8}5-1[8:1],7<4[8:1],{4},{24}B7,
B8,B1,B2,{12},{16}3x/4x,{8},{16}7x/8x,{8},2x/1x,{16}3xV51[4:1],5,4,6x,
{8}3,7,{16}8h[16:3],{8},{16}2,2,1,{8}3h[4:1],5,5,
{16}6,5,{8}6,{16}1,1h[8:1],,7,7x,8,6,3x,4,2,{8}8x,
{16}3,5,3,6,4,6,{8}5,{16}7,1,7,2,8,2,{8}1,
{24}4x,3,2,8x,7,6,3x,2,1,7x,6,5,8x-4[8:1],7x,8x,7x,8x,7x,{4}8bx,
2/6z2[8:5],{16}3,{8},{16}4,{8},5,{4}5h[8:1],
{16}1,5,8,4,7,3,6,2,{8}5-8[8:1]*-2[8:1],5,{4}5b,
{8}3,4/5,{4}1h[8:1]/2h[4:1],{16}4-7[8:1],2,{8}8,{16}4,6,,5,
8-3[8:1],6,{8}4,{16}8,2,,1,4-8[8:1],2,{8}7,{16}4,6,,5,
1V75[8:1],4,{8}2h[8:1],{16}1,2,,2,8V24[8:1],5,{8}7h[8:1],{16}8,7,,7,
5,6,{8}5,{4}7<4[8:1]/4V28V24b[8:3],{2}7/4V68[8:1],
{8}5,5/4,{4}8h[8:1]/7h[4:1],{16}5-2[8:1],7,{8}1,{16}5,3,,4,
1-6[8:1],3,{8}5,{16}1,7,,8,5-1[8:1],7,{8}2,{16}5,3,,4,
7,5,{8}1h[8:1],{16}2,4,,4,3-7[8:1],5,{8}1h[8:1],{4}3b,
{16}2h[8:1]/4h[8:1],{8},{16}8h[8:1]/7h[8:1],{8},4h[8:1]/6h[8:1],{16},1h[8:1]/2h[8:1],{8},{4}5bs1[8:1]/4bs8[8:1],
,{8}2/4,5/6,{16}7V58[16:3],8,{8}7,{16}3,3,,2,
2V41[16:3],1,{8}2,{16}6,6,,7,7V51[16:3],8,{8}7,{16}4,4,,2,
2-7-1[16:3],4,{8}2,{16}5,5,,6,6-3-5[16:3],8,{8}6,{16}1,1,,2,
2,4,3,6,5,7,{8}1x,4-7[8:1]/3-8[8:1],2/5,{4}4b/3b,
{8}7/5,3/4,1b/8h[8:1],{16}2,2,4,3,{8}4h[8:1],{16}2,1h[8:1],,5,
5b,6,{8}5h[8:1],{16}7,8h[8:1],,4,4b,2,{8}4-1[8:1],3/5,4/6,
{2}7bw3[8:1],1bw5[8:1],
{16}3b,7,2,6,1,5,8,4,{24}1b,2,3,4,5,6,7,8,1,2,3,4,
{1}5bV31<1b[4:13]/1bV75[1:1],
,Ch[2:3],
,{4}6h[4:7],
E8,{8},5,{4}5,
,E8/B7,{8},4,{4}4,
2h[1:1],E2,{8},4,{4}4,
{16}Cfh[4:3],{4},{8},{16}B5/B4,{8},2x,{4}2x,
{16}7-1[16:1],{8},{16}7/2pp5V71[16:9],{8},2b,{2},{8}4h[1:1],
8x,{16},3,{8},{16}6,{8},{16}1,{8},5,
{16}2-8[16:1],{8},{16}2/6v7-4V28[16:9],{8},6b,{2},{8}5h[1:1],
1x,{16},6,{8},{16}8,{8},{16}3,{8},7,
6h[8:1],{16}5,6,,2,4,3,{8}3h[8:1],{16}5,4,{8}6h[8:1],5,
3h[8:1],{16}4,3,,7,5,6,{8}6h[8:1],{16}4,5,{8}3h[8:1],4,
{16}7,8,7,8,7,5,7,5,8,4,7,3,{32}6,5,4,3,2,1,8,7,
{4}2b/6b>5V74[16:5],{16}3x-8[16:1],{8},{16}3x,{4},2bx/7bx,
{8}6/5>2[8:1],7,{16}5,6,,6,5,8,1,4,3,6,5,7,
{8}3h[8:1],{16}4,4,,3,4,1,8,5,6,2,{8}4,1/8,
2/7-4[8:1],8,{16}7,1,,1,{8}6-2[8:1],5/7,{16}6,4,,4,
{8}8-5[8:1],7,8/3-1[8:1],4,3/7-4[8:1]*-2[8:1],6,{4}7b,
{8}3/4<7[8:1],2,{16}4,3,,3,4,1,8,5,6,3,4,2,
{8}6h[8:1],{16}5,5,,6,5,8,1,4,2,7,{8}5,5/6,
7h[8:1],{16}8,8,,6x,5,7,2-6b[8:1],1,3,1,{4}2b,
{8}7/8,7/1V35[16:3],{16},5V72[176:53],,7-2-4[16:5],{2},{4}6b-8[8:1],
{16}6b/4,4,,4,1-5[8:1],4,,4,{8}1b,3,
2-8[8:1],1,{16}5b/2,5,,5,7-3b[8:1],5,,5,{4}7b,
{8}6h[8:1],{16}3,3,4,2,7,7h[8:1],,1,6,6,5,7,2,2h[8:1],
,8,{8}1,{16}6-1[8:1],6,,5,{8}6,4,3b/5b,4/2,
1b,{16}7,8/7,,1/6,,5x,4b-8[8:1],5,{8}4,2x/4x,3,
4b/7b,{16}6,5/6,,4/7,,8x,1b-5[8:1],7,2,8,{4}1xb,
{16}7b,7,5,5,4,4,2,2,{24}8b,7,6,5,{48}4,7bx,{24}3,2,1,8,7/3bx,6,5,
{2}4h[4:1]/1bh[4:1],{16}2q5[16:5]/8pp5[16:5],2/8,,2bx/8bx,{4},{1}Cf,
