&title=綺羅キラー (feat. Mori Calliope)
&artist=ずっと真夜中でいいのに。,森カリオペ
&first=0
&lv_5=13+
&des_5=-NICOLABULA-
&inote_5=
(142){4},,,,{8}6/4,
6/4,{4}6h[16:3]/4h[4:1],{16},6,{8}4h[16:3],{16},5,4,4,
{8}3/5,3/5,{4}3h[16:3]/5h[4:1],{16},3,{8}5h[16:3],{16},4,5,5,
{8}6/4,6/4,{4}6h[16:3]/4h[4:1],{16},6,{8}4h[16:3],{16},5,4,4,
{8}3/5,3/5,{4}3h[16:3]/5h[4:1],{16},3,{8}5h[16:3],{16},4,5,5,
{8}6b/4h[8:5],7,8,{16}1,1,{8},{16}E2,E1,E8,E7,{8}2h[8:1]/E6f,
,4/2,1/5h[8:3],{16}8,8,{8},{16}E8,E1,E2,E3,E4,E5,
{4}7h[8:1]/E6f,{8}8/4h[8:3],{16}1,1,{8},{16}2,1,8,7,{8}6b/2h[8:1],
,6/2,1/5h[8:3],{16}8,8,{8},{16}7,8,1,2,3,4,
{4}5h[8:1]/7h[8:1],{8}5/7,6h[8:1],4,4/5-1[8:1],3,5/2-7[8:1]*-5[8:1],
,2,,4/6-3[8:1],,6/2,1w5[8:1],2/8,
{4}1,{8}4/2,3h[8:1],5,5/4-8[8:1],6,4/7-2[8:1]*-4[8:1],
,7,{4},5h[8:1]/3h[8:1],6-3[8:1]/2-7[8:1],
6/2,{8}1/5,{16}3,4h[16:3],{8},2w6[8:1],,2,
,6/4,7/5h[8:1],{16}6,4h[16:3],{8},7,4w8[8:1],6,
{4}4,{8}5/3,{16}4,2h[16:3],{8},4w8[8:1],2,4,
,5/3,4/6h[8:1],{16}4w8[8:1],6,{8},4,{4},2b/8p4[4:1],
4p8[4:1],8x<4[4:1],{16}4x,3x,{8}2x,
{4}1xp5[4:1],5xp1[4:1],1>7p1[4:7],{8}7x,8h[8:13],
{1},{4},,,{8}5/3,
2/6,
{4}7b/1xp5[4:1],5xp1[4:1],1x>5[4:1],{16}5x,6x,{8}7x,
{4}8xq4[4:1],4xq8[4:1],8b<2q8[1:1],{8}2x,1h[8:9],
{1},{16}8,
7,6,5,1,2,3,4,6,7,8,1,5w1b[1.6859##0.2113],4,3,2,
{4}1/5h[2:1],{2},{4}5b,
2h[8:1]/6h[8:1],{8}6h[8:1]/2-4-2[4:1],1,{4}2-7-1[4:1]/6-3-5b[4:1],6,
{8},6/2,3h[8:1]/7-5-7[4:1],8,{4}7-2-8[4:1]/3-6-4b[4:1],3,
B2/E3/B3,B7/B6,Ch[4:1],B1/B3/B7/B5,
5h[8:1]/1p4[8:1],B2/E3/B3,3h[8:1]/8q5[8:1],E7f/B7/B6,
2h[8:1]/6h[8:1],{8}6h[8:1]/2-4-2[4:1],1,{4}2-7-1[4:1]/6-3-5b[4:1],6,
{8},6/2,3h[8:1]/7-5-7[4:1],8,{4}7-2-8[16:3]/3-6-4b[16:3],3,
3h[8:1]/7h[8:1],8h[8:1]/7h[8:1],{16}6h[8:1]/4h[8:1],{8},{16}6/4,{8},6/5h[8:1],
{16}7,7,{8}5,{16}8,8,{8}3,{16}1,1,{8}3,{16}4<7[8:1],4,{8}2,
{4}4/3h[8:1],{8}3/1V75[4:1],4,{4}5V71[4:1]/1V35b[4:1],1,
{8},5/7,4/6V82[4:1],3,{4}6V42b[16:3]/2V86[16:3],6,
5-8[8:1]/1-4[8:1],5/1,{16}7/3,{8},{16}4,{8}6pp6[4:1],3/5,
{4}6-4[8:1]/2-4[8:1],2qq2[4:1],2-4[8:1]/6-4b[8:1],6,
6h[8:1]/2h[8:1],{8}6h[8:1]/2-4-2[4:1],1,{4}2-7-1[4:1]/6-3-5b[4:1],6,
{8},6/2,3h[8:1]/7-5-7[4:1],8,{4}7-2-8[16:3]/3-6-4b[16:3],3,
3h[8:1]/7h[8:1],5h[8:1]/6h[8:1],{16}7h[8:1]/1h[8:1],{8},{16}7/1,{8},5/3,
2/4,4/2,3/5,5/3,{16}4,5,{8}4,3/5,2/6,
1/7-4[8:1],{16}2,2,{8}7b,3,8/2-5[8:1],{16}7,7,{8}2b,8,
4/6-1[8:1],{16}3,3,{8}6b,2,5/3-8[8:1],{16}6,6,{8}3b,5,
5/3h[16:1],4/2h[8:1],{4}1b,{8}4/6h[16:1],5/7h[8:1],{4}8b,
{16}7,5,6,4,{8}5b,2/4h[8:1],{16}1,4,2,5,{8}3b,4/6,
{16}7,4,6,5,{8}8b,6/4,{16}2,5,3,4,{8}1b,3/5,
{16}2,4,3,5,{8}1b,6/4,{16}7,4,6,5,{8}8b,7/3,
{16}6,4,5,3,{8}4b,1/7,{16}1,5,2,6,{8}3b,7/5,
8/1,{16}1,1,7,7,4,4,6,6,2,2,8-4b[8:1],8,5,5h[16:17],
{64},B8,C,B4,{4},{16},,,{2}B3,
B1,B6,
7h[2:1],5h[2:1],
4h[2:1],{4}5,5/4,
{8}4/6-8[8:1],5/3,{16}6/4,{8},{16}5,{8}6h[8:1],{16}4,5,{8}3,4,
5/3-1[8:1],4/6,{16}3/5,{8},{16}4,{8}3h[8:1],{16}5,4,{8}6,2,
1/7-4[8:1],8/2,{16}7/1,{8},{16}1,{8}7h[8:1],{16}1,8,{8}2h[8:1],{16}4,3,
4,3,{8}4h[8:1],{16}2,4,{8}3,{16}7,5,{8}6,{16}6/4w8[8:1],4/6,{8},{4}4,
3h[8:1]/5h[8:1],{8}3/5,{16}3-6[8:1],4,{8}2,3/5,
,7/5,{4}5h[8:1]/7h[8:1],{8}7/5,{16}6-3[8:1],5,{8}7,6/4,
{16}2,4,2,5h[16:1],{8}3,{16}4h[16:1],2,,5/3,,4h[16:1],{8}2,5/3,
{16}3h[8:1]/5h[8:1],{4},{16}3,5,4,{4}5qq5[4:1]*pp5[4:1],5,
{8},4/6,7/5,6/8h[16:7],{16},6,5,4,3,2,{8}1h[8:1],
,3/5,6/4h[8:5],{16}6,6,{8}7b,1b,6b,2b,
{16},4,{8}4,3/5,{16}6,4,6,5,6,5,,7,5,5,
8,8,4,4,7,7,2,2,6,6,1,1,{8}4h[4:1],1,
{4}1w5[8:1],1,{8}4/6,{16}3,4,{8}2/5-2[8:1],6,
7/5-8[8:1],6,5,4h[2:1],1b,7b,2b,6b,
8-4[8:1],4-8[8:1],{4}8,{8}2-7[8:1],7-2[8:1],{4}2,
{8}6,{16}6,6,4,5,4,5,{8}3/6,7/4,6/3,5/2,
4/1,{16}1,1,4,4,3,3h[8:1],,6,3,5,3,4,{8}2h[8:1],
{16}8,1,7,8,{8}5,{16}4,5,4x,4x,,5x/4x,{8},{16}3,5,
{8}4,{16}7,5,{8}6,3/7,{16}7,3,6-3[8:1],4,5,2,{8}6,
1h[8:1],8,7/4,{16}6,5,6,6,4,4,{8}5-1[1.6859##0.2113],5,
{4}5h[2:1],{2},{4}5bw1b[1.6859##0.1563],
5h[2:1],{2},{4}5b,
2h[8:1]/6h[8:1],{8}6h[8:1]/2-4-2[4:1],1,{4}6-3-5b[4:1]/2-7-1[4:1],6,
{8},6/2,3h[8:1]/7-5-7[4:1],8,{4}3-6-4b[4:1]/7-2-8[4:1],3,
B2/E3/B3,B7/B6,Ch[4:1],B1/B3/B7/B5,
5h[8:1]/1p4[8:1],B2/E3/B3,3h[8:1]/8q5[8:1],E7f/B7/B6,
2h[8:1]/8h[8:1],{8}8h[8:1]/2V48[4:1],1,{2}2/8-4-6[4:1]*-6-1b[4:1],
{8},2/8,1h[8:1]/7V51[4:1],8,{2}1-5-3[16:3]*-3-8b[16:3],
{4}1xh[8:1]/4xh[8:1],5h[8:1]/6h[8:1],{16}2h[8:1]/8h[8:1],{8},{16}2/8,{8},7/1h[8:1],
{16}7,8,{8}6h[8:1],{16}2,1,{8}3h[8:1],{16}7,5,6,3,4w8[8:1],2,{8}2,
{4}4b,{8}2-4-2[4:1]/6-8-6b[4:1],1/5,{2}2-7-1[4:1]/6-3-5b[4:1],
{8},6/2,7-5-7[4:1]/3-1-3b[4:1],4/8,{2}7-2-8[4:1]/3-6-4b[4:1],
{8},7,4/6-1[8:1],3/7,{4}6/4,{8}4/3-8[8:1],2/5,
{4}3/4-7[8:1],{8}4-1[8:1]/3-8[8:1],2,{4}3-6[8:1]/4-7[8:1],4/3,
2h[8:1]/8h[8:1],{8}8h[8:1]/2V48[4:1],1,{2}8V25[4:1]/2-7-4b[4:1],
{8},3/5,4h[8:1]/6V84[4:1],5,{2}4-6-1[16:3]/6-3-8b[16:3],
{4}5h[8:1]/6h[8:1],8h[8:1]/7h[8:1],{16}6/5,{8},{16}6,{8}5,4/6,
{16}5,5,3,3,6,6,4,4,7,7h[16:1],5,5h[16:1],8,8h[16:3],{24}6x,5x,4x,
{4}3V58[8:3],7,{2}8q5[4:1]*<5b[4:1],
{4}A5,8/6-3[8:1],6/2,{8}1h[4:1],{24}3x,4x,5x,
{4}6V41[8:3],2,{2}1p4[4:1]*>4b[4:1],
{4}A4,8/2-5[8:1],2/6,{8}7h[4:1],{24}5x,4x,3x,
{4}2xqq5[2:1],6,{2}5>1[4:1]*<1b[4:1],
{4}A1,1/7-4[8:1],7/3,{8}2h[4:1],{24}4x,5x,6x,
{4}7xpp4[2:1],3,{2}4<8[4:1]*>8b[4:1],
{4}A8,1/7,{16}7,1,7,1,6,2,6,2,
{2}5xh[4:1],{32}5xh[4:1],{4},{16},,,{32}5xh[4:1],
{4},{16},,,5xh[4:1],{4},{16},,,5h[4:1],
{4},{16},,,5h[4:1],{4},{16},,,5h[4:1],
{4},{16},,,5h[4:1],,,,{32}E4,B4,{4}B5,
