&title=Evans
&artist=DJ YOSHITAKA
&first=0
&des=vanessa
&lv_5=13+
&inote_5=(185){1},,
{8}2/5,3<8[2:1],4,5h[8:9],,,,,,1,,,2-5[8:1],,2,,
4/7,6>8[2:1],5,4h[8:9],,,,,,,,,7,
{24}5,6,5,6,,,3,4,3,
{8}4b>7[2:1],,2h[8:10],,,,,,,6,,,5-1[8:1],,5,,
2/8h[4:1],,6,5/7,4-1[8:1]/6,,7-4[8:1],,2,2,3,4,{16}5b-1[16:1],,,1b-5[16:1],,,2h[8:3],,,,,,
{4}7,7/2-5[8:1],7,{8}7,4,7,1,{16}7,8,8,,7,,1,,
{4}2/8-6[8:1],2,2/5-1[8:1],2,{8}2/8<3[8:3],8,2,,1-5[8:1],,1,,
4/7-5[8:1],,4,,3/4-8[8:1],,3,,2/7,7,2,5,{16}2,4,4,,3,,4,,
{8}2-4[8:1]/5,5,5,5,6/5-1[8:1],6,6,6,7/2,7,8/3,8,{24}1/4h[8:1],,,8,7,6,5h[8:1],,,8,1,2,
{1}3bqq8[1:1]/7bqq4[1:1],,
{16}3q5[2:1],,,5,,,6,,,7h[16:7],,,,,,,
6p4[2:1],,,5,,,4,,,3h[16:7],,,,,,,4-6[16:1],,,4/3,,,2-4[8:1],,,2/1,,,8,,8,,7p4[2:1],,,5,,,3h[8:5],,,,,,,,,,
{16}6p4[2:1],,,4,,,3,,,2h[16:7],,,,,,,
3q5[2:1],,,4,,,5,,,6h[16:7],,,,,,,5-3[16:1],,,5/6,,,7-5[8:1],,,7/8,,,1,,1,,2h[16:6]/1,,,3,,,4,,,5h[16:5]/6,,,7,,8,,
1b<6[8:1],,,4,,,3h[16:3],,,4,3,,3,,5,,4>1[8:1]/6,,,8,,,7h[16:3],,,8,7,,7,,1,,
2h[16:3]/8,,,1,2,,1/8,,7,8,,8,6<1[8:1],,5,,4h[8:1],,,4h[8:1],,,4/2<7[8:1],,,3,,,4,,4,,
6,,6,5,6,,6,,6,5,6,,4,,4/5,,3,,3,4,3,,3,,3,4,3,,2,,4/2,,
1,,1,5,1,,1,,1,5,1,,8,,6/8,,
{16}1-3[8:1],,6,6,1-7[8:1],,4,4,1,,5,5,{24}1,2,3,5,6,7,
{8}8bp6[2:1],,5,,3,,1>5[2:1],1,,,6,,8h[4:1],,6,5,4b/7b-4[8:1],,2q5[8:4],,6,,8<3[2:1],8,,,2,,1h[4:1],,4,2,3b-8[8:1]/5b,,7,6,5h[8:3],,7,8,6b/8b-3[8:1],,6,7,8h[8:3],,2,1,6/8-3[8:1],,2b/8b,,1-6[8:1]/4,,1b/3b,{16},,{8}
6/8-4[8:1],,1b/8b,,1-5[8:1]/3,,1b/8b,,
8-4[8:1],1-5[8:1],8,1,8-3[8:1],1-6[8:1],8,1,
{16}7,7,5,6,4,7,3,8,
{24}2h[8:1],,,1,8,7,6h[8:1],,,8>7[8:5],1,2,
{1}3h[1:1],
{8}8-4[8:1],,,,5w1[8:1],,5,,
{16}7-4[8:1],,,8,7/8<5[8:1],,1,,2h[8:2],,,,4,,3,,2-5[8:1]/5,,,1,1>4[8:1]/2,,8,,7h[4:1],,,,
5,,6,,7/4,,6,5,6,,7,,3,4,3,4,2-5[8:1],,1,,2b/8h[2:1],,,,,,,,3b,,,5b/7b,,,1b/2b,,
3-8[8:1],,,4,4>1[8:1]/3,,5,,6h[4:1],,,,8,,7,,6-1[8:1],,,5,5<8[8:1]/6,,4,,3h[4:1],,,,
1,,2,,3/8,,2,1,2,,3,,6,5,,5,6,,7/8,,2,1,3,,4/8,,6,5,7<4[8:1],,7,,4,3,2,1,
8-3[8:1],,,4,8/4>1[8:1],,5,,6h[4:1],,,,8,,7,,
1/8<5[8:1],,,4,8/4-7[8:1],,3,,2h[4:1],,,,8,,1,,7/8,,6,5,6,,4/3,,2,1,3,8,4,7,5,6,
4b>1[8:1],,,,7/4,,,,6b<1[16:1],,,2b-5[16:1],,,2,,
8<5[8:1],,,4,8/4-7[8:1],,3,,2h[4:1],,,,8,,1,,
7/8-3[8:1],,,4,8/4>1[8:1],,5,,6h[4:1],,,,8,,7,,2/1,,3,4,3,,5/6,,7,8,6,1,5,2,4,3,
5/2,,6,6,5,,7/4,,3,4,2,5,1,,8/2,,
7-4[8:1]/3-8[8:1],,,,7b<1[4:3]/3b,,,,,,,,,,,,,,,,
8h[2:1],,,,7,,,,6,,,,
{2}5-1[8:1]/8-6[8:1],
{8}8-2[8:1]/5h[8:2],,,,{16}8-3[8:1]/6,,,,7,,,,8<5[16:3],,,5>8[16:7],,,2,,2h[8:6],,,,,,,,,,,,
5,,,,7h[4:3]/5,,,,,,,,,,,,
{4}4,4-7[8:1]/2,,4-8[8:1]/3,,
{16}2/1,,3,,5/4,,6,6,5,,7,,8-4[8:1]/1,,2/7,,
{16},,,3,3>8[8:1],,5,,6h[8:2],,,,7,,8,,1>4[8:1]/6,,,5,5-2[8:1]/1,,6,,7h[4:1],,,,
8,,1,,2/5,,6,5,6,,7/4,,3,4,3,4,2-5[8:1],,1,,2b/8h[2:1],,,,,,,,6b,,,4b/2b,,,8b/7b,,
1-5[8:1]/2,,1h[8:3]/8,,,,,,{24}6h[8:1],,,1,2,3,4h[8:1],,,1,8,7,
{8}6-2[8:1],6h[8:3],,,{24}3h[8:1],,,1,8,7,6,,,1,2,3,
4h[8:1],,,1,8,7,4h[8:1],,,8,7,6,3h[8:1],,,7,6,5,2h[8:1],,,6,5,4,
{16}1,5,2,6,3,7,4,8,
{32}5,4,3,2,1,8,7,6,5,4,3,2,1,8,7,6,
{1}5bw1[1:1],,E
