&title=晴る
&artist=ヨルシカ
&first=0
&des=P4P1N002
&lv_5=13
&inote_5=(102)
{16}
,,,,
7<5[8:1]/5,,75,,,,,,
7-4[8:1]/5,,75,,,,,,
7-3[8:1]/5,,75,,,,,,
7>1[8:1]/5,,75,,,,,,
2>4[8:1]/4,,24,,,,,,
2-5[8:1]/4,,24,,,,,,
2-6[8:1]/4,,24,,,,,,
2-5-3[8:2]/4,,24,,6,,7,,8-6-4[4:1],,,,
4,,3,,2>5-1[8:3],,,,8,,8h[4:1],,,,,,,,
6pp1[8:3],,,,3,,4,,5,,6<3[4:1],,,,5,,5,,
5-2[8:1],,,,4,,4h[4:1],,,,,,,,5/3-8-2[8:3],,,,
7,,6,,5,,4-1-6[4:1],,,,5,,4,,3-7[4:1],,
,,6,,6,,,,5,,,,54,,,,5,,,5xh[16:1],,,5,,
5,,,,5,,5/4qq4[4:1],,5,,,,5x,5x,5x,,5,,,,
24,,3q8[8:2],,54,,7,,6,,5-2[8:1],,4-7[8:1],,,,,,
8-3>5[8:3],,,,4,,4h[4:1],,,,,,,,6h[8:1]/2-6-4-8[32:12],,,,
1,,8,,7,,6-8-5[4:1],,,,3,,2,,1-5-2[4:1],,,,
7,,7,,,,8-4[8:1],,,,8/3qq8[8:3],,,,4,,5,,
6,,7<4[4:1],,,,8,,1,,2-7-1[4:1],,,,6,,5,,
,,4,,,,45,,,,45,,5,4xh[16:1],5,,25,,25,,,3,4,,6,5,74,83,,8,7,1,6,2>5[16:1],5,,
6<1[16:1],6,,3<6[16:1],3,,8,8,,1x/8x,1x/8x,1x/8x,1xs5[8:3]/8x-4[8:3],,,,,,,,,,,,
{32}
7b-2[16:1]/3b-6[16:1],6x/2x,5x/1x,4x/8x,
{16},,7>5[4:1]/3,,,,3h[16:3],,,,3-5-7[16:3],,5,,7,,8,,
1bw5b[25.5#64:1],,,,,,,,,,3x/4b,,7b/8x,,6x/5b,,1b,,
{16}
,,
1/2-4-6[8:1],,6,,1-5[16:1],8,7-3[16:1],,1,,7,,
8,1,7,3,2,4,7,6,8,4,5,3,
{48}
1x-5[8:1],8x,7x,6x,5x,4x,3x,2x,1x,8x,7x,6x,
{16}
5x/1-7-3[4:1],,,,7-4[8:1],6,5,,7,,,,
2b-7-1-3-5[8:3]/6b-3b[8:1],,,,26,,,,8,,1<6[4:1],,,,2,,1,,8>3[4:1],,,,
7,,8,,1-7-5[4:1],,,,3,,4qq4pp4[2:1],,,,4b,,,,,,,,,,,,
{32}
2b-7[16:1]/6b-3[16:1],3x/7x,4x/8x,5x/1x,
{16},,2<4[4:1]/6,,,,6h[16:3],,,,6-4-2[16:3],,4,,2,,1,,
8-2-4[8:1],,4-6-8[8:1],,8,,,,,,7b/8x,,3x/4b,,1b/2x,,6x/5b,,,,
8/7-5-3[8:1],,3,,8-4[16:1],1,2-6[16:1],,8,,2,,
1,8,2,6,7,5,2,3,1,5,4,6,
{48}
8x-4[8:1],1x,2x,3x,4x,5x,6x,7x,8x,1x,2x,3x,
{16}
4x/8-2-6[4:1],,,,2-5[8:1],3,4,,2,,,,
2xb-7b[16:1],,6xb-3b[16:1],,2xb-5b[16:1],,6xb-1b[16:1],,2x,,
3bx<6b[4:1]/6,,,,2,,1,,8>3[4:1],,,,
7,,8,,1-7-5[4:1],,,,3,,4pp6pp8pp2pp4[8:12],,,,4b,,,,,,,,,,,,
