&title=ブルー・エモーション
&artist=相坂優歌「俺、ツインテールになります。」
&first=0
&des=Tail_Red
&lv_5=13
&inote_5=(158.001)
{1},{128},,,,,
(158)
{1}2V41-5[2:1],
{1}6-2-8-5[2:1],
{2}3-8-4-1[2:1],,
{1}5V71-3[2:1],
{2}2V48[4:1],6V48[4:1],
{2}3V51V37[2:1],A6f,
{8}3/5,,2,2h[4:1],,8V64[4:1],,4-7-1[4:1],
{8},,3h[4:1],,7,,8/2,,
{4}1^4[4:1]/6,4^7[4:1],7^2[4:1],2^5[4:1],
{8}5-1[8:1],,,,6,,3x/7x,,
{8}2b-5[8:1]/8,,,6b^1[8:1],,1,2,3bpp6[8:5]/8,
{2},5hx[4:1],
{4}3qq4[2:1]/5,5,5,5,
{4}5/4V28[2:1],5,5,5,
{4}8pp3[2:1]/5,5,5,5,
{16}4-1[8:1]/5,,,6,,,7h[2:1],,E4,,,E3,,,E2,,
{4}1x>5[2:1]/7,7,7,7,
{4}4-8-3[2:1]/7,7,7,7,
{8}7-4[8:1]/4,,4,3-8[8:1],,8,7-3[8:1],,
{4}1-5[8:1]/7,6h[4:1]/1,{16}A2,E3,E4,A4,A1,B1,C,B5,
{4}7xV51[2:1],4,4,4,
{4}2x<5[2:1]/4,4,4,4,
{4}6pp5[2:1]/4,4,4,4,
{16}5^8[8:1]/4,,,3,,,2h[2:1],,D6,,,D7,,,D8,,
{8}2-5[8:1],,5,6^1[8:1],,1,2-7[8:1],,
{8}8x-4[8:1]/2,,4,3-7[8:1],,7,6^3[4:1],,
{4}3^8[4:1],8^5[4:1],5^2[4:1],2^7[4:1],
{16}3h[4:1],,,,,,E2,E1,,,A4,,A5,,A6,,
{4}3qq6[2:1],,6qq1[2:1],,
{8}1>5[8:3],,,,6,,7,,
{2}8qq4[2:1],4pp1[2:1],
{4}1<5[8:3],,3,2,
{4}1-5[8:1]/5,1/7,1-5[8:1],1/3,
{8}2-5[8:1],,5/2,6,7-4[8:1],,4/7,3,
{8}2/5x,2,2/6,2,{16}2x,7,2,7,2,8,2,8,
{4}2bxh[2:1]/1hbx[4:1],,7bx-3[8:1],7b/3b,
{8}1V37[4:1],,5,5-2[8:1],,1,1-5[8:1],,
{4}1^6[8:1]/6,5x-1[8:1]/1,5/2^5[8:1],2/8,
{8}6V84[4:1]/4,,3,3-8[8:1],,7,7v4[8:1],,
{8}7qq4[2:1]/4,,3,,2,,1,,
{8}8-4-2[4:1]/5,,6,6-1[8:1],,3,3-6[8:1],,
{8}3xV15[4:1]/7,,8,8-4[8:1],,3,3^8[8:1],,
{4}7-4[8:1]/3,1-5[8:1]/7,6^1[8:1]/1,2V41[4:1]/6,
{4}2/8,E7,4w8[8:1]/5,4,
{8}8V62[4:1],,4,4-7[8:1],,8,8-4[8:1],,
{4}8^3[8:1]/3,4x-8[8:1]/8,4/7^4[8:1],7/1,
{8}3V15[4:1]/5,,6,6-1[8:1],,2,2v5[8:1],,
{8}2pp5[2:1]/5,,6,,7,,8,,
{8}1-5-7[4:1]/4,,3,3-8[8:1],,6,6-3[8:1],,
{8}6xV84[4:1]/2,,1,1-5[8:1],,6,6pp3>6pp4[1:3],,
{1}A5f,
{1},
{1},
{8}D2,,,,,D5,D6,,
{8}E2,,,,,E6,E7,,
{4}5h[4:3],,,{16}4xV68[32:7],,,,
{8}3,2-4[8:1],,5-1[8:1],,2-5[8:1],,6-1[8:1],
{8},4,4-8[8:1],,7-4[8:1],,7/1,,
{4}3^6[4:1]/6,6^1[4:1],1^4[4:1],4^7[4:1],
{2}7-3[8:1],{16}4x,3x,2x,1x,5x,4x,3x,2x,
{16}6x^1[8:1],,,4,,,3,,5^8[8:1]/4,,,3,,,2,,
{16}1-5[8:1]/8,,,7,,,6,,4-8[8:1]/5,,,6,4x,,7h[4:1],,
{24}1x,2x,3x,4x^7[8:1],,,,,,1x,2x,3x,4x^7[8:1],,,3,,,2qq5[8:3],,,1,,,
{8}6hb[4:1],,,,7,7,8,1,
{24}2/8,,,2/8h[8:10],,,,,,{32}2x,E3,B3,B4,E5,,,,2x,E2,B1,B8,E8,,,,2x,E3,B3,B4,
{32}E5,,,,2x,E2,B1,B8,E8,,,,2xV85[4:1],E3,B3,B4,E5,,,,3x,,,,3x,,,,2x,,,,
{24}7/1,,,7/1h[8:10],,,,,,{32}7x,E7,B6,B5,E5,,,,7x,E8,B8,B1,E2,,,,7x,E7,B6,B5,
{32}E5,,,,7x,E8,B8,B1,E2,,,,7x>3[4:1],E7,B6,B5,E5,,,,6x,,,,6x,,,,7x,,,,
{16}2x/8x,,4,5,3,,1x/8x,,6,5,7,5,6,,3x/4x,,
{16}4,5,3,6,2,7,1,8,2b-6[8:1]/7x,,,,2b/6b,,,,
{8}1V37[4:1],,8,8-4[8:1],,6,6-2[8:1],,
{4}2^5[8:1]/6,1-5[8:1]/2x,1/5^8[8:1],5x/3,
{8}7V51[4:1]/4,,3,3-8[8:1],,7,7-3[8:1],,
{8}7qq3[2:1]/3,,4,,3,,2,,
{8}1-5-3[4:1]/5,,7,7-3[8:1],,2,2^7[8:1],,
{8}2V48[4:1]/7,,6,6-1[8:1],,3,3^6[8:1],,
{4}7-3[8:1]/3,4-1[8:1]/7,8-3[8:1]/4,2-5-1[4:1]/8,
{4}2/4,{32}E7,B7,B6,,,,,,{4}1w5[8:1]/8,1,
{8}8V62[4:1],,1,1-5[8:1],,3,3-7[8:1],,
{4}7^4[8:1]/3,8-4[8:1]/7x,8/4^1[8:1],4x/6,
{8}2V48[4:1]/5,,6,6-1[8:1],,2,2-6[8:1],,
{8}2pp6[2:1]/6,,5,,6,,7,,
{8}8-4-6[4:1]/4,,2,2-6[8:1],,7,7^2[8:1],,
{8}7V51[4:1]/2,,3,3-8[8:1],,6,6-8v5v2-4[4:5],,
{1}A1f,
{4},,1/8,2/7,
{4}6-3[4:1]/3,3-8[4:1],8-5[4:1],5-2[4:1],
{2}2-6[4:1],{4}4w8[8:1],4,
{8}3^6[8:1],2,1,8-4[8:1],5,6,7,8^3[8:1],
{8},7/8,6-2[8:1],,1w5[8:1],,1,,
{8}6b^3[8:1],7,8,1b-5[8:1],4,3,2,1b^6[8:1],
{8},2/1,3-7[8:1],,8bw4[8:1],,8,,
{32}3x>5[1:2],4x,5x,,,,,,,,,,,,,,,,,,,,,,,,,,,,,,
