&title=霍元甲
&artist=周杰伦
&first=0
&des=huoのshi
&lv_5=13+
&inote_5=(196){1},,
{4}4h[2:3],,,,,,5,,5h[2:3],,,,,,3,3,6h[8:3],
{8},4h[8:11],,,,,,,,,,,,,6h[2:4],,,,,,,,5,5,5,5,5,5,5-1[8:1],5,5,,6,5,6,5,6,,65,,6,5,6,5,6,5,65,,6,5,6,5,6,,65,,6,5,6,5,6,5,65,,1,1,8,1,1,,18,,1,1,8,1,1,8,18,,1,1,8,1,1,,18,,1,1,8,1,1-4[8:1],8,1b/8b,,,,5,4h,6,2h,7,4h,5,1h,8,,1-4[8:1],,1,,,,7,2h,5,1h,8,4h,6,1h,8,,1-4[8:1],,1,,,,7,4h,8,3h,1,2h,6,1h,8,,1-4[8:1],,1,,,,7,5h,8,4h,1,5h,7,1h,8,,1-4[8:1],,1,,8-5[8:1],,8,,,,7,3h,8-5[8:1],,8,,,,2h,,2h,6,5h,1,3h,1,2h,,8-5[8:1],,8,,,,7,3h,8-5[8:1],,8,,,,6,2h,8-5[8:1],,8,,,,6,,6,4h,2,4h,1,3h,8,,8-5[8:1],,8,,,,
{8}1>4[2:1],,,,4-8[2:1],,,,8<4[4:3],,,,,,4-2[4:1],,2<6[4:3],,,,,,6-4[4:1],,4>1[2:1],,,,,,,,1v3[4:1],,,,2v4[4:1],,,,3v5[4:1],,,,4v6[4:1],,,,5p7[4:3],,,,,,,,,,8,,8,,8,,8<5[2:1],,,,5-1[2:1],,,,1>5[4:2],,,,5<1[4:2],,,,1>5[4:2],,,,5<1[4:2],,,,1>5[2:1],,,,,,,,8v6[4:1],,,,7v5[4:1],,,,6v4[4:1],,,,5v3[4:1],,,,4q2[4:3],
{8},,,,,,,,,,,18,,18,,8b/2,,8b,,8b/4,8b,,8b,3,8b,8b,,8b/4,,1h,1h,7,,3h,,8,1h,,8,,8,8-5[8:1],,8,,,,1b/7,,1b,,1b/5,1b,,1b,6,1b,1b,,1b/5,,8,8,2h,,6,,1h,8,,1h,,8,8-5[8:1],,8,,,,8b/2,,8b,,8b/4,8b,,8b,3,8b,8b,,8b/4,,4h,4h,5,,3h,,1,3h,,8,,2h,8-5[8:1],,8,,,,1b/7,,1b,,1b/5,1b,,1b,6,1b,1b,,1b/5,,5,5,4h,,6,,1h,5,,1h,,8,8-5[8:1],,8,,,,
{8}1b/8b,,1,1,8,1,1,,1,1,8,1,1,,78,,67,,7,7,6,7,7,,7,7,6,7,7,,56,,54,,4,4,5,4,4,,4,4,5,4,4,,34,,23,,2,2,3,2,2,,2,2,3,2,2,,12,,1h,8,2h,7,3h,6,4h,5,4h,2,3h,1,2h,8,1h,7,1h,3,2h,4,3h,5,4h,6,2h,8,3h,4,8h,7,5h,6,4h,1,5h,8,6h,7,8h,5,1h,4,2h,3,2h,4,2h,5,2h,6,3h,7,4h,8,5h,1,6h/2,5h/1,4h/8,3h/7,2h/6,1h/5,8h/4,,
{8}8/1-4[8:1],,8,,8/1,8,,8,1-4[8:1],8,8,,8/1,,2-4[8:1],8,2,,7-4[8:1],,7,1-5[8:1],,1,,8,8-5[8:1],,8,,,,1/8-5[8:1],,1,,1/8,1,,1,8-5[8:1],1,1,,1/8,,7-5[8:1],1,7,,2-5[8:1],,2,1-4[8:1],,1,,8,8-5[8:1],,8,,,,8/1-4[8:1],,8,,8/1,8,,8,1-4[8:1],8,8,,8/1,,3p7[8:1],4,3,,6-8[8:1],,6,3-6[8:1],,3,,1,8-5[8:1],,8,,,,1/8-5[8:1],,1,,1/8,1,,1,8-5[8:1],1,1,,1/8,,6q2[8:1],5,6,,3-1[8:1],,3,6-3[8:1],,6,,8,8-5[8:1],,8,,,,
{8}5/3h[4:1],,5,,5/3h[4:1],5,,5,4h[2:1],5,5,,5,,5/3h,5,5/2h[2:1],,5,,5,5,3h,5,3h[4:1],5,5,,5/4h[4:1],,,,5/3h[4:1],,5,,5/3h[4:1],5,,5,4h[4:1],5,5,,5/3h[4:1],,5,5,5/4h[1:1],,5,,5,5,,5,,5,5/4h,,5/4h,,4h,,5/3h[4:1],,5,,5/3h[4:1],5,,5,4h[2:1],5,5,,5,,5/3h,5,5/3h[4:1],,5,,5/4h[4:1],5,,5,4h[2:1],5,5,,5,,4h,,5/2h[2:1],,5,,5,5,,5,4h[4:1],5,5,,5/3h[4:1],,5,5,5/4h[8:7],,5,,5,5,,5,,5,5-1[8:1],,5<4[4:13],,,,8>4[4:11],
