&title=怪獣
&artist=サカナクション/TVアニメ「チ。 ―地球の運動について―」OPテーマ
&first=1.02
&des=Ragna
&wholebpm=180
&demo_seek=
&demo_len=
&des_4=Ragna@No gimmick
&des_5=Ragna@for MajdataPlay
&lv_4=13+
&lv_5=13+
&inote_4=(90){2},{16}
4,4h[16:15],,C,,,,,
B6/B7,,,B2/B3,,,,,
5,5h[16:15],,C,,,,,
B3/B2,,,B7/B6,,,,,
3,3h[16:7],,C,,,,,
4,4h[16:7],,B6/B7,,B2/B3,,,
5,5h[16:7],,C,,,,,
6,6h[16:7],,B6/B7,,B2/B3,,,
4h[16:1],7h[16:15],,C,,,,,
B6/B7,,,B2/B3,,,,,
2h[16:1],5h[16:15],,C,,,,,
B6/B7,,,B2/B3,,,,,
3h[16:1],4h[16:7],,C,,,,,
5h[16:1],6h[16:7],,B6/B7,,B2/B3,,,
1h[16:6],,,8h[16:4],,,,,
{16396}4b>4[16:9]b/Cf,
{4}4!^3^2^1^8^7^6^5^4[16:9],,,,{16}
6xh[8:1]/E1/B1,,5,,3h[8:1]/E1/B8,,4,1-7-2-6-3-5-1[256:158],
7,2,,16,,3,,5w1[8:1]b,
,8,,A5,,A1,,37,
3-1[16:1]b/7-5[16:1]b,,2-6-2[8:1]/6,,D3/D7,,6h[8:1],,
,,8V24[8:1]/1,,4V68[8:1],6-8-4-8[256:62]b,8-4[256:23]/2h,,
1,1,,B3,,B1,2pp5[4:1],2,
,,5qq6[32:7],,8,,7p4[4:1],7,
,,A8h[4:1]/D8h[4:1],,,,,,
3h[8:1]/E1/B8,,4,,6h[8:1]/E1/B1,,5,8-2-7-3-6-4-8[256:158],
2,7,,83,,6,,4w8[8:1]b,
,1,,A4,,A8,,,
7^5[16:1]/1^3[16:1],,8-4-8[8:1]/4,,D2/D7,,4h[8:1],,
,,1<5[8:1]/6,,5>1[8:1],3^1-5-1[256:56]b,1-5[256:20]/7h,,
8,8,,B6,,B8,7qq4[4:1],7,
,,4pp3[32:7],,1,,2q5[4:1],2,
,,A1h[4:1]/D2h[4:1],,,,,,
8x<2[8:5]/4xh[8:3],,,,,,,E3,
E2,,E1,,E8,,E7,,
1>7[8:5]/5h[8:3],,,,,,,E7,
E8,,E1,,E2,,E3,,
8x-4[32:3]/4x,,7,7,1-5[32:3],,2,2,
7-3[32:3],,8,B4,,B1,,,2^5[32:3]/8,,1,1,7^2[32:3],,6,6,
4^7[32:3],,3,3,2,1,8,7,
2xz6[8:5]/6xh[8:3],,,,,,,E8,
E1,,E2,,E3,,E4,,
7s3[8:5]/3h[8:3],,,,,,,E2,
E1,,E8,,E7,,5h[32:1],5h[32:1],
6x-4[16:1]/4x,,7,2,6/3v6[16:1],,2,8,
3/7^6-4[16:1],,8,1,7/2-4[16:1]b,,7-5[16:1]/1,,
2x/1-5[16:1]b,,7x/8-4[16:1],,1x/7,,8x/2,,{32}
1x-5[16:1],2x,3x,4xw8[16:1]b,5x/8x,7x,6x,5x,{16}1x/4x,,Cf,,{32}
2bx/6bx,,,,4^5^6^7^8^1^2^3^4[4:1]/5,,,,1/8^1^2^3^4[8:1],,,,6h/4b,A5,A6,A7,
A8,A1,A2,A3,A4/5^4^3^2^1^8^7^6^5[4:1],,,,1^8^7^6^5[8:1]/8,,,,3h/5b,A4,A3,A2,
A1,A8,A7,A6,A5/4^5^6^7^8^1^2^3^4[4:1],,,,8^1^2^3^4[8:1]/1,,,,6h/4b,A5,A6,A7,
A8,A1,A2,A3,A4/5^4^3^2^1^8^7^6^5[4:1],,,,1^8^7^6^5[8:1]/8,,,,3h/5bpp1[4:1],A4,A3,A2,
A1,A8,A7,A6,A5/4b^5^6^7^8^1^2^3^4[4:1],C,B8,A7,A6,B5,C,B1,A1/4b,A5,A6,A7,
A8,A1,A2,A3,A4/5V31[8:1],,,,1V75[8:1]/8,,,,5pp4>6[64:25]b/3h,,,,
4,,,,2^8[128:9],,,,1,,,,5xqq4[8:1]*pp6[8:1],,,,
,,,,5/E5/E6,,,,,,,,28,,28,,
7bx/3bx,,,,5^4^3^2^1^8^7^6^5[4:1]b/4,,,,8/1^8^7^6^5[8:1],,,,3h/5b,A4,A3,A2,
A1,A8,A7,A6,A5/4^5^6^7^8^1^2^3^4[4:1]b,,,,8^1^2^3^4[8:1]/1,,,,6h/4b,A5,A6,A7,
A8,A1,A2,A3,A4/5^4^3^2^1^8^7^6^5[4:1]b,,,,1^8^7^6^5[8:1]/8,,,,3h/5b,A4,A3,A2,
A1,A8,A7,A6,A5/4^5^6^7^8^1^2^3^4[4:1]b,,,,8^1^2^3^4[8:1]/1,,,,6h/4bqq8[4:1]b,A5,A6,A7,
A8,A1,A2,A3,A4/5b^4^3^2^1^8^7^6^5[4:1]b,C,B1,A2,A3,B4,C,B8,A8/5b,A4,A3,A2,
A1,A8,A7,A6,A5/4V68[8:1],,,,8V24[8:1]/1,,,,4qq5<3[64:25]b/6h,,,,
5,,,,7^1[128:9],,,,8,,,,4x-8[16:1],,,,
6-2[16:1],,,,8w4[16:1]b/4,,,,61,,,,8b,,,,
E
&inote_5=(90){2},{16}
4,4h[16:15],,C,,,,,
B6/B7,,,B2/B3,,,,,
5,5h[16:15],,C,,,,,
B3/B2,,,B7/B6,,,,,
3,3h[16:7],,C,,,,,
4,4h[16:7],,B6/B7,,B2/B3,,,
5,5h[16:7],,C,,,,,
6,6h[16:7],,B6/B7,,B2/B3,,,
4h[16:1],7h[16:15],,C,,,,,
B6/B7,,,B2/B3,,,,,
2h[16:1],5h[16:15],,C,,,,,
B6/B7,,,B2/B3,,,,,
3h[16:1],4h[16:7],,C,,,,,
5h[16:1],6h[16:7],,B6/B7,,B2/B3,,,
1h[16:6],,,8h[16:4],,,,,
{16396}4b>4[16:9]b/Cf,
{4}4!^3^2^1^8^7^6^5^4[16:9],
,,,{16}
6xh[8:1]/E1/B1,,5,,3h[8:1]/E1/B8,,4,1-7-2-6-3-5-1[256:158],
7,2,,16,,3,,5w1[8:1]b,
,8,,A5,,A1,,37,
3-1[16:1]b/7-5[16:1]b,,2-6-2[8:1]/6,,D3/D7,,6h[8:1],,
,,8V24[8:1]/1,,4V68[8:1],6-8-4-8[256:62]b,8-4[256:23]/2h,,
1,1,,B3,,B1,2pp5[4:1],2,
,,5qq6[32:7],,8,,7p4[4:1],7,
,,A8h[4:1]/D8h[4:1],,,,,,
3h[8:1]/E1/B8,,4,,6h[8:1]/E1/B1,,5,8-2-7-3-6-4-8[256:158],
2,7,,83,,6,,4w8[8:1]b,
,1,,A4,,A8,,,
7^5[16:1]/1^3[16:1],,8-4-8[8:1]/4,,D2/D7,,4h[8:1],,
,,1<5[8:1]/6,,5>1[8:1],3^1-5-1[256:56]b,1-5[256:20]/7h,,
8,8,,B6,,B8,7qq4[4:1],7,
,,4pp3[32:7],,1,,2q5[4:1],2,
,,A1h[4:1]/D2h[4:1],,,,,,
8x<2[8:5]/4xh[8:3],,,,,,,E3,
E2,,E1,,E8,,E7,,
1>7[8:5]/5h[8:3],,,,,,,E7,
E8,,E1,,E2,,E3,,
8x-4[32:3]/4x,,7,7,1-5[32:3],,2,2,
7-3[32:3],,8,B4,,B1,,,2^5[32:3]/8,,1,1,7^2[32:3],,6,6,
4^7[32:3],,3,3,2,1,8,7,
2xz6[8:5]/6xh[8:3],,,,,,,E8,
E1,,E2,,E3,,E4,,
7s3[8:5]/3h[8:3],,,,,,,E2,
E1,,E8,,E7,,5h[32:1],5h[32:1],
6x-4[16:1]/4x,,7,2,6/3v6[16:1],,2,8,
3/7^6-4[16:1],,8,1,7/2-4[16:1]b,,7-5[16:1]/1,,
2x/1-5[16:1]b,,7x/8-4[16:1],,1x/7,,8x/2,,{32}
1x-5[16:1],2x,3x,4xw8[16:1]b,5x/8x,7x,6x,5x,{16}1x/4x,,Cf,,{32}
2bx/6bx,,,,4^5^6^7^8^1^2^3^4[4:1]/5,,,,1/8^1^2^3^4[8:1],,,,6h/4b,A5,A6,A7,
A8,A1,A2,A3,A4/5^4^3^2^1^8^7^6^5[4:1],,,,1^8^7^6^5[8:1]/8,,,,3h/5b,A4,A3,A2,
A1,A8,A7,A6,A5/4^5^6^7^8^1^2^3^4[4:1],,,,8^1^2^3^4[8:1]/1,,,,6h/4b,A5,A6,A7,
A8,A1,A2,A3,A4/5^4^3^2^1^8^7^6^5[4:1],,,,1^8^7^6^5[8:1]/8,,,,3h/5bpp1[4:1],A4,A3,A2,
A1,A8,A7,A6,A5/4b^5^6^7^8^1^2^3^4[4:1],C,B8,A7,A6,B5,C,B1,A1/4b,A5,A6,A7,
A8,A1,A2,A3,A4/5V31[8:1],,,,1V75[8:1]/8,,,,5pp4>6[64:25]b/3h,,,,
4,,,,2^8[128:9],,,,1,,,,5xqq4[8:1]*pp6[8:1],,,,
,,,,5/E5/E6,,,,,,,,28,,28,,
7bx/3bx,,,,5^4^3^2^1^8^7^6^5[4:1]b/4,,,,8/1^8^7^6^5[8:1],,,,3h/5b,A4,A3,A2,
A1,A8,A7,A6,A5/4^5^6^7^8^1^2^3^4[4:1]b,,,,8^1^2^3^4[8:1]/1,,,,6h/4b,A5,A6,A7,
A8,A1,A2,A3,A4/5^4^3^2^1^8^7^6^5[4:1]b,,,,1^8^7^6^5[8:1]/8,,,,3h/5b,A4,A3,A2,
A1,A8,A7,A6,A5/4^5^6^7^8^1^2^3^4[4:1]b,,,,8^1^2^3^4[8:1]/1,,,,6h/4bqq8[4:1]b,A5,A6,A7,
A8,A1,A2,A3,A4/5b^4^3^2^1^8^7^6^5[4:1]b,C,B1,A2,A3,B4,C,B8,A8/5b,A4,A3,A2,
A1,A8,A7,A6,A5/4V68[8:1],,,,8V24[8:1]/1,,,,4qq5<3[64:25]b/6h,,,,
5,,,,7^1[128:9],,,,8,,,,4x-8[16:1],,,,
6-2[16:1],,,,8w4[16:1]b/4,,,,61,,,,8b,,,,
E
