&title=ヨロヨロ
&artist=はしメロ; 7co
&first=-0.01
&des=Carpe diem
&lv_5=13
&inote_5=(128)
{1},
{16}4h[4:1],,,,,,4h[8:3]/3,,,,,,,,,,
{16}6h[4:1],,,,,,6h[8:3]/5,,,,,,,,,,
{16}2h[4:1],,,,,,2h[8:3]/4,,,,,,,,,,
{16}8h[8:1],,4h[8:1],,7h[8:3],,3h[4:1],,,,,,7-3[8:1]/3,,,,
{16}4b,,,,25,,4,3,,3,4,,2^5[8:1],,1,,
{16},,8,,8,,5,7,,7,5,,1-6[8:1],,4,,
{16}2,,,,15,,4,2,,2,4,,8^3[8:1],,,,
{16}5,,7,,1,,3,4,3,4,3,,2-6[8:1],,,,
{16}5,,,,48,,5,7,,7,5,,1^6[8:1],,4,,
{16}2,,,,25,,4,3,,3,4,,2-7[8:1],,8,,
{16}6,,,,47,,5,6,,6,5,,7^2[8:1],,1,,
{16}3-6[8:1],,,,5h[4:1],,,,7-2[8:1],,,,1h[4:1],,,,
{16}3^5[48:5],,,,5,,8,8,5h[4:1],,,,2,,8,,
{16}5-3[48:5]/6,,,,3,,1,1,4h[4:1],,,,7,,1,,
{16}4^6[48:5]/3,,,,6,,8,8,5h[4:1],,,,2,,8,,
{16}6-4[48:5],,6,,1-7[48:5],,1,,4-2[48:5]*-6[48:5],,4,,,,,,
{16}5h[4:1],,,,,,5h[8:3],,,,,,,,,,
{16}3h[4:1],,,,,,3h[8:3],,,,,,,,,,
{16}7h[4:1],,,,,,7h[8:3],,,,,,,,1h[4:1],,
{16}4,,6,,8,1,,27,2-5[8:1]/7-4[8:1],,36,,,,,,
{16}1b<3[4:1]/8b,,,,1/2q6[8:1],,,,2,,1,,8,,5^2[8:1]/7^5[48:5],,
{16},,57,,,,1bs5[4:1],,,,4,,6,,8,,
{16}75,,4,,6h[4:1]/2,,,,1-6[8:1],,6-2[8:1],,,,5^8[8:1],,
{16},,2^5[8:1],,,,7^2[8:1],,,,5,,4,,3,,
{16}2v5[8:1]/8v5[8:1],,,,2pp5[8:3]/8,,,,4,,5,,6,,7>5[4:1],,
{16},,37,,,,1h[4:1],,,,4,,35,,26,,
{16}7b-2[8:1],,,,2,,3-6[8:1],,,,7pp2[16:7],,,,5h[8:3],,
{16},,,,,,,15,1^6[8:1]/5^2[8:1],,48,,,,,,
{16}1b,,,,25,,,4,3,,3,,2-5[8:1]/5,,,,
{16}6-3[8:1],,7,,2-5[8:1],,1,,6-3[8:1],,7,,8,,,,
{16}56,,,,74,,,5,6,,6,,7-4[8:1]/4,,,,
{16}4-7[8:1],,3,,7-4[8:1],,8,,4-7[8:1],,3,,2,,,,
{16}8/1^4[8:1],,,,5,,6,,7p3[8:1]/3,,,,2,,1v2[8:1],,
{16},,3q8[8:1],,,,7^4[8:1],,,,8,,1,,2,,
{16}4/3^8[8:1],,,,8,,,,6^1[8:1]/5,,6,,1,,,,
{16}2h[16:7]/8h[2:1],,,,,,,,,,37,,5,,{24}1,,1,
{16}8b,,4,,71,,6,5,,5,6,,1-5[8:1]/7,,6-8[48:5],,
{16}1-3[48:5],,6-2[8:1],,1<3[48:12],,6,,1,,,,7h[4:1],,,,
{16}1,,5,,28,,3,4,,4,2,,8-4[8:1]/1,,2-4[48:5],,
{16}8-6[48:5],,2-6[8:1],,8>7[48:13],,2,,8,,,,2h[4:1],,,,
{16}6h[4:1],,,,,,6h[8:3]/5,,,,,,,,,,
{16}4h[4:1],,,,,,4h[8:3]/3,,,,,,,,,,
{16}2h[4:1],,,,,,2h[8:3]/1,,,,,,,,,,
{16}8h[16:7],,4h[16:5],,,,,,4-1[8:1]/8-5[8:1],,15,,,,,,
{16}8b>6[4:1],,,,8/7p3[8:1],,,,7,,8,,1,,5^8[8:1]/2^5[8:1],,
{16},,52,,,,1bV74[48:11],,,,5,,3,,1,,
{16}24,,5,,3h[4:1]/7,,,,8-3[8:1],,3-5[48:5],,,,2-6[8:1],,
{16},,8-3[8:1],,,,5-8[8:1],,,,4,,3,,2,,
{16}7v4[8:1]/1v4[8:1],,,,1pp4[8:3]/7,,,,4,,5,,6,,7>5[4:1],,
{16},,73,,,,1h[4:1],,,,5,,64,,73,,
{16}2b-6[8:1]/8b,,,,6,,8w4[8:1],,,,8,,,,2^7[8:1]/6,,
{16},,5pp8[16:8],,4qq1[16:6],,,,,,,,,,,,
{16}4h[4:1],,,,5,,4h[4:1],,,,5,,54,,,,
{16}6h[4:1],,,,4,,6h[4:1],,,,4,,46,,
,,
{16}2h[4:1],,,,5,,2h[4:1],,,,5,,52,,,,
{16}8h[8:1],,4h[8:1],,7h[8:1],,3h[4:1],,,,5,,37,,,,
{16}2^5[4:1],,,,1,,,,6q3[4:1],,,,5,,,,
{16}4^7[4:1],,,,3,,,,8q5[4:1],,,,7,,,,
{16}6<3[32:10],,,,3,,4,,5q2[32:9],,,,2,,3,,
{16}4<3[16:15],,,,,,,,,,,,,,,,
{16},,8,,8,,37,,37,,2,8,6,4,2h[8:1],,
{16}8b>5[48:11],,,,28,,,,1,,2V47[48:11],,6,,7V52[48:11],,
{16},,2,,,,8bqq4[16:6],,,,1,,3,,5,,
{16}1^4[8:1]*^6[8:1],,,,1,,,,5,,7-3[8:1]/3,,,,7/4-8[8:1],,
{16},,6^1[8:1]/4,,,,4^1[8:1]/6,,,,8,,6,,4,,
{16}7v4[8:1]/1v4[8:1],,,,17,,,,3,,2<6[48:11],,7,,6>2[48:11],,
{16},,2,,,,8h[4:1],,,,5,,43,,28,,
{16}7b^2[8:1],,,,2/7,,3^6[8:1],,,,3/7pp4[16:6],,,,1h[8:3],,
{16},,,,,,3,4,2,,18,,6,5,47,,
{16}2b,,8,,34,,6,5,7,,1,,56,,3,4,
{16}2,,8,,34,,6bV48[4:1]/5b,,,,8-3[8:1],,3,,5,,
{16}1,,3,,24,,6,5,8,,6,,75,,2-4[48:5]/4,,
{16}8,,7-4[48:5],,1,,2qq7[16:6],,8,,7,,6,,5,,
{16}4b,,1,,24,,6,5,8,,1,,57,,3,4,
{16}1,,8,,24,,6,5,8,,1,,7,3,5,1,
{16}7b-4[8:1],,5,,4,,3-7[8:1],,2,,8-4[8:1],,1,,2^5[8:1],,
{16}1,,8,,7,,6,6,5h[4:1],,2,,8,,6,,
{16}4b^2[16:4],,,,,,,,4^6[16:4],,,,,,,,
{16}4p3[8:5],,,,,,,,,,,,,,,,
{16}5^7[16:4],,,,,,,,5^3[16:4],,,,,,,,
{16}5p3[8:5],,,,,,,,,,,,,,,,
E
