&title=誕生
&artist=はるまきごはん
&first=0
&des=crystal
&lv_2=1
&lv_3=6
&lv_4=12
&lv_5=13+
&inote_2=(80){16},{4},,,1,1,1,,2,2,2,,3h[2:1],,,,4h[2:1],,,,8,8,8,,7,7,7,,6h[2:1],,,,5h[2:1],,,,1x/2x,,1,,7/8,,8,,6,6,6h[2:1],,,,3,3,3,,4,,5,,6,6,5xh[1:1],,,,,,,,
E1,,E2,,2,2,2,,E1,,E8,,7,7,7,,6h[2:1],,,,3h[2:1],,,,5-8[4:5],,,,,,,,
{8}3x,4x,3xh[2:1],,,,,,2,,,,2,,,,6x,5x,6xh[2:1],,,,,,7,,,,7,,,,{4}E5,,E4,,3,3,3,,E5,,E6,,6,6,6,,3/4,,5/6,,3,3,6,6,4-1b[4:5],,,,,,,,
{8}7x,7x,7x,,,,,,8x,8x,8x,,,,,,1x,1x,1x,,,,,,2x,2x,2x,,,,,,{4}3,3,3,,4h[2:1],,,,5bh[1:1],,,,,,,,5,5,5,,6,6,6,,3h[16:17],,,,,,3,E
&inote_3=(80){16},{4},,,{8}6,6,5/6,,,,,,3,3,3/4,,,,,,7h[2:1]/8,,,,1,,2,,2h[2:1],,,,7,,,,7,7,7/8,,,,,,2,2,1/2,,,,,,1-4[4:3],,,,,,,,5h[4:1],,,,4,,,,
3,,2,,1,1,8,,5,,6,,7,7,8,,1/2,,1/2,,1/2,1/2,1/2,,7/8,,7/8,,7/8,7/8,7/8,,7,,6,,5,5,4,,1,,2,,3,3,4,,5h[2:1],,,,,,,,C,,,,1x/8x,,,,2,,3,,5h[4:1]/4,,3,,7,,6,,4h[4:1]/5,,6,,7h[4:3],,,,1h[4:1],,,,8,,8,,8,,,,1,1,1,,8h[4:1],,,,7,7,7,,2h[4:1],,,,3,,3,,6,,6,,4/5,,4/5,,4/5,,4b/5b,,
3^8[2:1],,,,,,,,4,,5,,6,5,6,,6^1[2:1],,,,,,,,5,,4,,3xh[2:1],,,,6bxp1[2:1],,,,,,,,2/8,,2/8,,3/7,,3/7,,4h[2:1],,,,5h[2:1],,,,4,4,5,5,3h[4:1],,,,6,,7,,1,1,1,,2,,3,,1,2,1,,1-4[4:3]/8-5[4:3],,,,,,,,,,,,E2/E8,,E4/E6,,
1,1,8,8,2,2,7,7,3h[2:1],,,,6,,6,,5,5,4,4,6,6,3,3,7h[2:1],,,,2,,2,,1h[2:1],,,,,,,,7h[2:1]/8h[2:1],,,,,,,,1bh[1:1]/2bh[1:1],,,,,,,,,,,,,,,,
4,3,2,1,5,6,7,8,4,3,1/2,,5,6,7/8,,7h[16:9],,{16}1,,,,,2xh[16:15],,,,,8,,,,,,,,,,C,E
&inote_4=(80){16},{4},,,{8}4h[2:1]/6h[2:5],,,,,,,,E7,,E6,,E5,,E4,,2h[2:3],,,,,,,,4h[2:1],,,,,,,,5-8[4:3],,4,,5,,6,,3p7[4:3],2h[4:1],,,1,8,1h[4:3],,,,,,6v1[4:3],,6,,6h[2:1],,,,,,,,
3-7[8:1]/7,,5-8[8:1],5,2-6[8:1],,1<3[4:1],1,5,,1-5[8:1],1,8,,3/7,,6-2[8:1],,4-1[8:1],4,7-3[8:1],,8>6[4:1],8,5,,8-4[8:1],8,1,,2/6,,7-3[4:3],8,1,2,1-5[4:3],,,,,,,,6h[2:1],,3,2,1,,2/8,,2^7[4:3]/6q3[4:3],,,,,,,,,,,,
7-4[2:1]/2h[2:1],,,,,,1-5[2:1],,8,,7,,6,,8,1,2/3-7[2:1],,3/6-2[2:1],,,,,,8,7,6h[4:3],,B2,,E4/D4,,2v5[2:1],1,2h[4:1],,,,3h[4:1],,6qq1[2:1],1,2^4[4:1],,,,,,7h[2:3],,1,,8,,8-4b[2:1],,8,,,,,,E7/B7/B6/E3/B2/B3,,2-7[4:3],2,3,3,4h[4:1],,,,5-8[4:3],5,6,6,7h[4:1],,,,1>4<4[4:5]*>4[44:15],,,,,,,,5^8[4:1],,,,,,,,
1bq5[2:1]/8b,,7h[4:1],,,,6-2[2:1],7,4h[4:1],,,,6h[4:1],,,,8/1,,7/1h[4:1],,8-4[8:1],7-3[8:1],,,2q6[2:1],3,4,5,4h[4:1],,,,8V24[2:1],,6,5v7[2:1],4,,,,1h[2:1],,7v4[2:1],,7,,7-1[4:1],,7h[4:1],,,,2/6,,1pp4[2:1]/5pp8[2:1],1/5,,,,,,,,,
4/6,3/7,2/8,1w5[8:3],,,,,,,,,3/5,,3/5,,5/3,6/2,7/1,8w4[8:3],,,,,,,,,6/4,,6/4,,4^1[2:1]/5,5/4,5^8[2:1],5,,,,,1^4[2:1],8,8,8,8-5[4:5],,,,1b-4[4:3],,,,,,,,,,,,,,,,
8-6-2[2:1]/4,3,2,1,8h[2:1],,,,1V35[2:1],8,7,6,7h[2:1],,,,{16}8<1[1:1],,,,5h[8:1],,,,,5h[8:1],,,,,7h[16:3],,,,,,,,,,8b,E
&inote_5=(80){16},{4},,,{8}1h[16:1],,B5,,C,,,,2h[16:1],,B6,,C,,,,3h[16:1],,B7,,C,,,,4h[16:1],,B8,,C,,,,5-1[2:1],4/6,3/5,2,2-6[2:1],3,,,8v3[2:1],8,8,,7h[2:1],,,,8,1-6[2:1],2,3,4,5,6,7,8h[4:1],,1^3[4:1],,1,,,,
{16}3/7,,7,8,7,8,7,,1/6,,2,1,2,1,2,,3/8,,6,5,,3,4,,2/6,,1-4[8:1]/7-4[8:1],,,,1x/7x,,,,3,4,3,4,3,,2/5,,6,5,6,5,6,,4/7,,2,1,7>6[2:1],,8,,C,,,,,,,,1-5[2:1],,,,2,,1,,8p3[2:1],,7,,8h[4:1],,,,,,7h[8:1],,,,1h[8:1]/6h[8:1],,,,7-3[8:1],,1-5[2:1],,7/8,,1,,,,4h[8:1],,,,4v2[4:1]*<2[2:1],,,,,,,,,,3-7[4:1],,4,,3,,,,1,,
8^5[2:1],,2,3h[16:5],,,,,,,2,,1w5[8:1],,5w1[8:1]/1,,1,,,,A2/A8,,D2/D8,,A1/A7,,D1/D7,,8h[4:1]/6h[4:3],,,,,,,,8^3[2:1],,,,,,,,3qq7[2:1],,4,,5,,6,,7^4[2:1],,8,,1h[2:1],,,,,,,,,,3,3,6^1[4:1],,4/5,3,3^6[2:1],2h[8:1],,,3,,,,7h[16:1],,7h[16:1],,8p4[2:1],8,8,8,8/1q2[2:1],,,,1,,,,C,,,,6<2[4:1],,,,2pp4[4:1],,3,,4v7[4:1],,,,7pp4[2:1],,2,1,8-4[4:1],,,,,,,,,,,,6bh[2:1]/3b,,,,
3,4,5,,7,8,1,2,3h[2:1],5,4,,2,1,8,7,6h[2:1],,,,8-4[2:1],,,,8,,,,,,,,2-6[8:1],,8-4[8:1],,2,,8,,3<7[2:1],,2h[8:1],,3,,1,,(40)8-3[4:1],,(80)8x-3b[2:1],,,,8x,,,,,,,,A3f,,,,
7h[4:1]/3h[8:1],,,,1V35[2:1],,8,,7>3[2:1],,6,,7,,,,,,,,6pp3[2:1],,,,6/1h[8:1],,,,6h[8:1],,,,5pp4[4:1],,3qq4[4:1],,5,,3,,,,5pp5[8:5]*qq5[8:5],,5,,5,,,,,,,,,,,,6-2[2:1],5,4h[8:1]/6,,6,,8h[8:1],,,,6h[8:1],,,,3h[8:1]/7,8,7,6,{32}3-7[4:1]/7-3[4:1],D4/D8,A8/A4,D1/D5,A5/A1,D6/D2,A2/A6,D3/D7,{16}3^8[8:3]/7^4[8:3],,,,,,,,,,,,7v2[2:1],,8h[4:1]/7,,,,,,2^5[4:1],,8,,5-8[2:1],,7,,1h[4:1],,,,,,,,4h[4:1],,6,,7bh[4:1],,,,
{32}4x,3,2,1,8,7,6,5,4,3,2,1,8,7,6,5,2x,1,8,7,6,5,4,3,2,1,8,7,6,5,4,3,8x,7,6,5,4,3,2,1,8,7,6,5,4,3,2,1,6x,5,4,3,2,1,8,7,6,5,4,3,2,1,8,7,4x,5,6,7,8,1,2,3,4,5,6,7,8,1,2,3,6x,7,8,1,2,3,4,5,6,7,8,1,2,3,4,5,8x,1,2,3,4,5,6,7,8,1,2,3,4,5,6,7,2x,3,4,5,6,7,8,1,2,3,4,5,6,7,8,1,{16}4-8[2:1],,5,,6,,7,,5-1[2:1],,4,,5,,6,,1<2[2:1],,,,,,,,1xq4[4:5],,,,,,,,7bxp4[4:3],,,,,,,,,,,,,,,,,,,,,,,,,,,,,,,,
5<1[2:1],,4,,3,,2,,1qq3[2:1],,,,,,8,,2h[8:1],,,,4q1[2:1],,3/5,,4/6h[4:1],,,,,,,,7<3[2:1],,7,,7/8h[8:1],,,,,1h[8:1],,,,,8v5b[8:3]`2v5[8:3],,,3x/7x,,,,,,,A5f,E
