&title=Alone & Lorn
&artist=Ponchi♪ feat.はぁち
&first=0.03
&des_1=Yuuki⁠☆
&des_2=Yuuki⁠☆
&des_3=Yuuki⁠☆
&des_4=Yuuki⁠☆
&des_5=Yuuki⁠☆
&lv_5=13++
&des_6=Yuuki⁠☆
&des_7=Yuuki⁠☆
&des=Yuuki⁠☆
&inote_5=(100)
{8},,,,,,,,{8}3/4,3h[8:2],4,5,5/6,6h[8:2],5,4,4/3,3h[8:2],4,5-8[8:1],,
B4,B3,B2,8/7,7h[8:2],8,1,1/2,{24}3,7,4,{8}8b,,1/2,3/8,4/7,5qq2[8:2]/6pp1[8:2],,,,,
8h[6:2],1,{24}2,,2,8,,,7h[6:2],,,2,,,3,,3,7,,,6h[6:2],,,3,,,4,,4,6v7-1b[8:2],,,,,4,4,,,3,,,2,,,
1h[6:2],,,8,,,7,,7,1,,,2h[12:1],,,8,4,7,3b,,,,,,3h[24:9],,,7,,,6,,,5,,3,,,5,4,,,Chf[8:2],,,,,,3-5[8:1],,,3,,,
1-3[8:1],,,1,,,7-1[8:1],,,7,,,5h[8:1],,,Ch[8:1],,,4-2[8:1],,,4,,,6-4[8:1],,,6,,,8-6[8:1],,,8,,,1h[8:2],,,,,,
8-5-3b[8:6],,,,,,,,,,,,1x,,,E2,B2,B3,B4,,,,,,1h[8:1],,,8,,,2/7,,,8,,,1h[8:1],,,2h[8:1],,,3h[8:1],,,4h[8:1],,,
{8}5<5>5b[2:7],,,,C,,,,4h[8:4],,,,C,,,,3h[8:4],,,,C,,,,2h[8:3],,,Cf,,,,4/5,4/5v7<5v7[8:4],,4,2,C,4,2,4/5,
4v2>4v2[8:4]/5,,5,7,C,5,7,4>1b[22#16:3]/5<8b[22#16:3],Ch[8:7],,,,,,,,4xh[8:4]/5xh[8:4],,,,,,,,
{24}4,,4,5,,5,4,,4,3xz7b[27#8:1]/6x,,3bh[128:103]/6bh[128:103],,,,{8},,,,,,,,,,,{16}4/5-8[8:1],,,3,,,2,,4-1[8:1]/5,,,
6,,,7,,4/5v8[8:1],,,3,,,2,,4v1b[8:1]/5,,,6,,,7,,4/5p8[8:1],,,3,,,2,,B2/B7,,{24}3,5,3,6,4,6,
{64}C,,,,,,,,2xh[64:8],E3,B3,B4,E5,,,,7xh[64:8],E7,B6,B5,E5,,,,2xh[64:8],E3,B3,B4,E5,,,,7xh[64:6],E7,B6,B5,E5,{16}4x>8[16:3],,,
,,,,,
{64},,,
{16}6h[8:1]/C,5x,5x,C/3h[8:1],4x,4x,6h[8:1]/C,5x,5x,C/3h[8:1],4x,4x,5/2,8,4/7,1,2h[8:1]/C,4bx,4,7h[8:1]/C,5bx,5,2h[8:1]/C,4bx,4,7h[8:1]/C,5bx,5,
C/A2h[16:1],,C/A7h[16:1],,{24}3x,5,3,6x,4,6,3x,5,3,6x,4,6,2x,4,3b,7x,5,6b,2x,5,3b,8x,4,6b,{16}Chf[16:12],,,,,,,,,,,,,,,,{24}3/6,,3/6,,3/6,,{48}B7,B2,,
{16},,,,,,,{56}8x/3x,7x/4x,5xh[8:2]/6xh[8:2],,,,,,,,,,,,,,,,,,,
{16}E4/E8/Cf/D1/D2/D3/D4/D8/B1/B2/B3/B8/E1/E2/E3/A1/A2/A3/A8,,,
{48},{24}4x,3x,,B2,B7,,6x-8[135#8:1],5x,
,,,,2,2,,,8/1,,8/1,,8/1,,8x/E1,B8,B7,B2,C,B6,B3,B4,E5,D4,A4,D5,{56}1b,2,3,4,,,,{16}6h[16:10],,,,4>1b[65#8:2],,,,,,4b,,,,{8}7,6,5h[8:1],4,3/6,2,1h[8:1],8,7/2,6,,
{32}7h[16:1]/5h[16:1],,,,,,2h[16:1]/4h[16:1],,,,,,{16}8h[8:2]/1h[8:2],,,,,,C,,{24}6x,4,6,3x,5,3,6x,4,6,3x,5,3,6x,5,6,3x,4,3,6x,5,6,3x,4,3,7x,4b,7,2x,5b,2,7x,4b,7,2x,5b,
2h[24:13],{8},,,,6,,,,7,,,,8,,,,1,,,{16},,,,B2f/B7f,,3h[16:1],4,6h[16:1],5,{24}1,4,3,8,5,6,1x,1,1,2x/8x,,,{64}6xh[64:8],E7,B7,B8,E1,,,,3xh[64:8],E3,B2,B1,E1,,,,6xh[64:8],E7,B7,B8,E1,,,,3xh[64:6],E3,B2,B1,E1,{16}8x<5[16:3],,,
,,,,
{64},,,
{16},6h[8:1]/C,5x,4x,C/3h[8:1],4x,5x,6h[8:1]/C,5x,4x,C/3h[8:1],4x,5x,6/2,8,3/7,1,2h[8:1]/C,5bx,6,7h[8:1]/C,4bx,3,2h[8:1]/C,5bx,6,7h[8:1]/C,4bx,3,
C/A2h[16:1],,C/A7h[16:1],,{24}3x,5,C,6x,4,C,3x,4,E2,6x,5,E8,4bx,5,B2,5bx,4,B7,5bx,6,B3,4bx,3,B6,{16}Chf[16:14],,,,,,,,,,,,,,,,{24}1x/2x,,2x,3,,3,4,,4h[24:3]/B5,,,8x,,,8x,7,,7,6,,6h[24:3]/B5,,,2x,,,2x,3,,3,4,,4h[24:3]/B5,,,7,,,
7xh[24:1],B7,,1xh[24:1],B1,,5xh[24:3],B5,,,,,2x,4,,4,6,,6h[24:3]/B7,,,7x,,,7,5,,5,3,,3h[24:3]/B2,,,2x,,,2,4,,4,6,,6h[24:3]/B7,,,7x,,,8bxh[24:1],B8f,,2bxh[24:1],B2f,,4bxh[24:3],B4f,,Cf/B1/B8/B7,,,
2,1,,{48}2bx,3x,{24}4x,,1,8,,{48}1bx,2x,{24}3x,,8,7,,{48}8bx,1x,{24}2x,,6,5,,5xh[56:7],{56}E6,B6,B7,E8,,,,4xh[56:7],,,,E4,B3,B2,E2,,,,,5x,,,5xh[24:2],,,B6,B7,B8,B1,B2h[56:18],,,1x,,,{24}1bxh[56:12],,,,,,,,,
{16}8,,7,,1-3[150#8:1]/6,,B8,,6,,5,,4/7-1[150#8:1],,B6,,3,,4,,2/5-7[150#8:1],,B4,,1,,2,,{24}1-4-6b[65#8:4],7,3,5,2,8h[24:4],,,,1-5-8-3[30#8:4],,,,,,,,,,,,,,,,,,,,{48}D7,A7,D8,
E
