&title=ワールドワイドワンダー (feat. 花里みのり)
&artist=花里みのり
&first=0
&des=B(@A@)D
&clock_count=4
&lv_5=13
&inote_5=(142){1},
{16},,,,,,,,,,1,8,2h[4:1]/7h[4:1],,,,
{8},3/4,1h[8:1]/5h[8:1],,7/8,1h[8:1]/5h[8:1],,3/4,
1pp5[8:3]/5,,5,6,7,8,1<2[4:3],,
{4}1h[4:7],,,,
,7,,7,
{8}5h[4:3]/4,,3,,,,3,2h[8:1]/6h[8:1],
,7/3,6/2,5/1,8>3[8:1]/4<7[8:1],,,,
{16}4h[8:1],,6,2,5h[8:1],,3,7,1h[8:1],,8,2h[8:1],,1,3/8,,
,,7,5,6h[8:1],,4h[8:1],,2q7[8:1],,1,,1b,,,,
5h[8:1],,3,7,4h[8:1],,6,2,8h[8:1],,1,7h[8:1],,8,6/1,,
,,3,4,2h[8:1],,6h[8:1],,8q5[16:3],,1,,2b,,3,,
{8}4h[4:1]/6h[4:1],,,3/5,3h[16:3]/5h[16:3],,{16}2,4,1b,,
{16}3,8b,,6,1b-5[8:1],,,,,,6,,3,3,4,,
{8}2h[4:1]/5h[4:1],,,3/6,4h[4:1]/7h[4:1],,,{16}3,4,
{16}2-6[8:1],,,5,,,7,,8-4[8:1],,,5,,,3,,
{16}2b-5[8:1],,,1,2,,8,,7-4[8:1],,,8,7,,1,,
{16}2<7[8:1],,3/4,,5,5,,6v3[8:1],,,8,,1,,2,,
{16}3/4-1[8:1],,,5,4,,6,,7V51[4:1],8,6,,1,,2,,
{8}3-8[8:1],,7-4[8:1],7,2-6[8:1],2,8<4[8:1]*>4[8:1],,
{16}8b,,,,1/7,,,,2/5,,3-6[8:1],4,,,2h[4:1],,
{8},1,7/8,5/6,3-7[8:1]/4-8[8:1],,3b/4b,,
{8}1>6[2:1]/6h[4:1],,,7,7,,8,,
1<4[2:1]/5h[4:1],,,3,3,,2,,
8>5[2:1]/3h[4:1],,,5,5,,6,,
7<2[8:3]/4h[4:1],,,1,1s5[8:1],,,,
{16}2/7,,3,4,,6,5,,2/7,,6,4,,3,5,,
{8}1,2/8,3/7,4/6,5pp5[8:1]*qq5[8:1],,,,
{8}2b<7[8:1]/8b,3,2/6h[4:1],,4,3/5,4/6,7,
2<7[8:1]/8,3,2/6>7[4:1],,6/3h[8:3],,,5-1[8:1],
4/6,5,3,2pp1[4:1]/8h[4:1],,2,7,6,
{16}4/5,,2,4,,7,5,,4v2[8:1]/8v6[8:1],,,,,,,,
{8}1/5,6V47[16:3],4,2-6[8:1],,2,1,8,
7b/5b,6/4>6[16:5],5/3,4b/2b,,5,4,3,
2-5[8:1],8,2b,7<4[8:1],8,7b,1-5[8:1],3,
1b<4[4:1],,4,3,2,1,4/8,,
{8}7>2[8:1]/1,6,7/3h[4:1],,5,6/4,5/3,2,
7>2[8:1]/1,6,7/3<2[4:1],,3/6h[8:3],,,4-8[8:1],
5/3,4,6,7qq8[4:1]/1h[4:1],,7,2,3,
{16}5/4,,6,1,,3,8,,2v4[8:1]/7v5[8:1],,,,,,,,
{8}3/6,2V48[16:3],5,7h[4:1],,1,2/6,3,
4b/8b,3-8[8:1]/7-4[8:1],2/6,3b/7b>6[4:1],,6,7,8,
1-5[8:1],4,1b,3-7[8:1],6,3b,5-1[8:1],2,
5b>8[4:1],,8,7,6,5,4/8,,
7<4[8:1],8/6,7b,2-6[8:1],3/1,2b,8-4[8:1],7/5,
8b>5[4:1]/4b,,5,6,7,8,5/1,,
{16}4,4,6,2,5,5,3,7,1,1,8,2,7,3,4/6,,
,,7,5,6h[8:1],,4h[8:1],,2q7[8:1],,1,,1b,,,,
5,5,3,7,4,4,6,2,8,8,1,7,2,6,5/3,,
,,3,4,2h[8:1],,6h[8:1],,8<4[8:1],,1,,2b,,,,
3,3,4,2,7,7,5,6,1,1,5,3,6,2,1/7,,
,,6,8,7h[8:1],,5h[8:1],,4q1[8:1],,2,,2b,,,,
6,6,5,7,2,2,4,3,8,8,4,6,3,7,8/2,,
,,3,1,2,7,8,6,4,5,3,6,2,7,1,8,
{8}2b/7b,,4-1[16:1]/5-8[16:1],4b/5b,,2V48[4:1]/7V51[4:1],4/5,2b/7b,
{4},,1b/8b,,
{1},
E
