&title=996
&artist=李化禹
&first=0.07
&des=Neopharmazz
&lv_2=3
&lv_3=6
&lv_4=9
&lv_5=13+
&inote_2=(140){8},,,,,,,,
8x,,,,,,,,
,,,,,,,,
1x,,,,,,,,
,,,,,,,,
8,,,,,,,,
8,,,,,,,,
1,,,,,,,,
1,,,,,,,,
7,,,,,,,,
7,,,,,,,,
2,,,,,,,,
2,,,,,,,,
8,,,,8,,,,
7,,,,7,,,,
6,,,,6,,,,
5,,,,5x,,,,
4,,,,4,,,,
3,,,,3,,,,
2,,,,2,,,,
1,,,,1,,,,
8h[1:1],,,,,,,,
,,,,,,,,
1h[1:1],,,,,,,,
,,,,,,,,
8,,,,8,,,,
1,,,,1,,,,
8,,,,1,,,,
8b/1b,,,,,,,,
2h[2:1],,,,,,,,
3h[2:1],,,,,,,,
4h[2:1],,,,,,,,
5,,,,4x/5x,,,,
7h[2:1],,,,,,,,
6h[2:1],,,,,,,,
5h[2:1],,,,,,,,
4,,,,4x/5x,,,,
5-8[4:5],,,,,,,,
,,,,,,,,
2,,,,12,,,,
7,,,,78,,,,
2,,,,12,,,,
8h[2:1],,,,,,,,
3,,,,34,,,,
6,,,,65,,,,
3h[4:1],,,,4h[4:1],,,,
5h[4:1],,,,6h[4:1],,,,
E2,,,,B1,,,,
B8,,,,E8,,,,
E4,,,,B4,,,,
B5,,,,E6,,,,
2,,1,,2,,1,,
2,,1,,2,,,,
7,,8,,7,,8,,
7,,8,,7,,,,
3,,4,,3,,4,,
3,,4,,3,,,,
6,,5,,6,,5,,
6,,5,,6,,,,
2,,4,,2,,4,,
2,,4,,2,,,,
7,,5,,7,,5,,
7,,5,,7,,,,
18,,,,72,,,,
63,,,,54,,,,
54,,54,,54,,54,,
,,,,,,,,
3>6[4:5],,,,,,,,
,,,,,,,,
4,,,,4,,,,
5,,,,5,,,,
6<3[4:5],,,,,,,,
,,,,,,,,
4b,,4,,5,,5,,
3,,3,,6,,6,,
2>7[4:5],,,,,,,,
,,,,,,,,
8h[4:1],,,,1h[4:1],,,,
7h[4:1],,,,2h[4:1],,,,
7<2[4:5],,,,,,,,
,,,,,,,,
1b,,2,,3,,4,,
5,,6,,7,,8,,
Cf,,,,,,,,
,,,,,,,,
,,,,,,,,
,,,,,,,,
,,,,,,,,
,,,,,,,,
,,,,,,,,
E
&inote_3=(140){8},,,,,,,,
7h[8:3],,,,,,,,
,,,,,,,,
2h[8:3],,,,,,,,
,,,,,,,,
7xh[2:1],,,,5h[2:1],,,,
6h[2:1],,,,4h[2:1],,,,
5h[2:1],,,,3h[2:1],,,,
4h[2:1],,,,2h[2:1],,,,
4h[2:1],,,,3h[2:1],,,,
5h[2:1],,,,4h[2:1],,,,
6h[2:1],,,,5h[2:1],,,,
7h[2:1],,,,,,,,
3,,4,,3,,4,,
3,,4,,3,,34,,
6,,5,,6,,5,,
6,,5,,6x/5x,,,,
2,,1,,2,,1,,
2,,1,,2,,21,,
7,,8,,7,,8,,
7,,8,,7,,78,,
3h[4:3],,4,,4,,4,,
6h[4:3],,5,,5,,5,,
2h[4:3],,1,,1,,1,,
7h[4:3],,8,,8,,8,,
3h[4:1],,4,,6h[4:1],,5,,
2h[4:1],,1,,7h[4:1],,8,,
3h[4:1],,6h[4:1],,2h[4:1],,7h[4:1],,
Cf,,,,,,,,
6h[4:1],,4,,7h[4:1]/8,,2,,
6h[4:1],,4,,7h[4:1]/8,,2,,
6h[4:1],,4,,7h[4:1]/8,,2,,
6h[4:1],,4,,B7/B8,,,,
3h[4:1],,5,,2h[4:1]/1,,7,,
3h[4:1],,5,,2h[4:1]/1,,7,,
3h[4:1],,5,,2h[4:1]/1,,7,,
3h[4:1],,5,,B1/B2,,,,
1s5b[4:5],,,,,,,,
,,,,,,,,
3h[4:1],,1,,5/4h[4:1],,7,,
3h[4:1],,1,,5/4h[4:1],,7,,
3h[4:1],,1,,5/4h[4:1],,7,,
3q7[2:1]*p7[2:1],,,,,,,,
6h[4:1],,8,,4/5h[4:1],,2,,
6h[4:1],,8,,4/5h[4:1],,2,,
7h[4:1],,8,,2h[4:1],,1,,
3h[4:1],,4,,6h[4:1],,5,,
7,7,,7,,7,7,,
E2,,,,E8,,,,
2,2,,2,,2,,,
E6,,,,E4,5,5,5,
3b,,34,,3,,34,,
3,,34,,3,,38,,
6,,65,,6,,65,,
6,,65,,6,,61,,
2,,35,,2,,35,,
2,,35,,2,,18,,
7,,64,,7,,64,,
7,,64,,7,,18,,
3,,24,,6,,57,,
3,,24,,1,,28,,
6,,57,,3,,24,,
6,,75,,8,,17,,
7-5[8:1]/2-4[8:1],,,,7-5[8:1]/2-4[8:1],,,,
7-5[8:1]/2-4[8:1],,,,7-5[8:1]/2-4[8:1],,,,
72,,27,,72,,72,,
B1/B2,,B8/B7,,B6/B5,,B4/B3,,
1h[2:1],,,,2z6[1:1],,,,
,,,,,,,,
3h[4:1],,4,,5h[4:1],,4,,
4h[4:1],,5,,6h[4:1],,5,,
8h[2:1],,,,7s3[1:1],,,,
,,,,,,,,
B7/B6/B3/B2,,2h[4:1],,3h[4:1],,4h[4:1],,
5h[4:1],,6h[4:1],,7h[4:1],,8,,
4h[2:1],,,,3-1-5-7[1:1],,,,
,,,,,,,,
7h[4:1],,8,,2h[4:1],,1,,
6h[4:1],,5,,3h[4:1],,4,,
5h[2:1],,,,6-8-4-2[1:1],,,,
,,,,,,,,
B8/B1/B5/B4,,7h[4:1],,6h[4:1],,5h[4:1],,
4h[4:1],,3h[4:1],,2h[4:1],,1h[4:1],,
8b<1b[4:11],,,,,,,,
,,,,,,,,
,,,,,,,,
,,,,,,,,
,,,,,,,,
,,,,,,,,
,,,,,,,,
E
&inote_4=(140){8},,,,,,,,
3h[8:3],,,4-8[8:9],,,,,
,,,,,,,,
6h[8:3],,,5-1[8:9],,,,,
,,,,,,,,
2-4[4:1],,,,7-5[4:1],,,,
1-3[4:1],,,,8-6[4:1],,,,
2-4[4:1],,,,7-5[4:1],,,,
1-3[4:1],,,,8-6[4:1],,,,
2-5[4:1],,,,7-4[4:1],,,,
1-6[4:1],,,,8-3[4:1],,,,
2-5[4:1],,,,7-4[4:1],,,,
1s5[4:1],,,,A8,,,,
7-5[8:1],,78,,7-5[8:1],,78,,
7-5[8:1],,78,,7-3[8:1],,71,,
2-4[8:1],,21,,2-4[8:1],,21,,
2-4[8:1],,21,,7x/3x,,,,
6-8[8:1],,65,,6-8[8:1],,65,,
6-8[8:1],,65,,6-2[8:1],,64,,
3-1[8:1],,34,,3-1[8:1],,34,,
3-1[8:1],,34,,3-7[8:1],,35,,
8h[1:1],,1,,2,,3,,
4h[1:1],,5,,6,,7,,
8h[1:1],,7,,6,,5,,
4h[1:1],,3,,2,,1,,
{12}8,E8,B7,B6,E6,,1,E2,B22,B3,E4,,
7,D7,A6,D6,A5,,2,D3,A3,D4,A4,,
5,E6,B6,4,E4,B3,6,E7,E8,3,E3,E2,
5bs1b[2:1],,,,,,,,,,,,
2,1,2,1,2,,1x,2,1,2,1,,
3,4,3,4,3,,4x,3,4,3,4,,
2,1,2,1,2,,1x,2,1,2,1,,
3,4,3,4,3,,E8/E2/Cf/E5,,,,,,
7,8,7,8,7,,8x,7,8,7,8,,
6,5,6,5,6,,5x,6,5,6,5,,
7,8,7,8,7,,8x,7,8,7,8,,
6,5,6,5,6,,E7/C/E3,,,,,,
8-5b[4:5]/1-4b[4:5],,,,,,,,,,,,
,,,,,,,,,,,,
3,4,3,4,3,,5x,4,5,4,5,,
2,1,2,1,2,,8x,1,8,1,8,,
3,4,3,4,3,,5x,4,5,4,5,,
2q3[2:1],,,,,,,,,,,,
6,5,6,5,6,,4x,5,4,5,4,,
7,8,7,8,7,,1x,8,1,8,1,,
{8}6h[4:1],,5,4,3h[4:1],,2,1,
8h[4:1],,7,6,5-1[8:1],,5,,
E8/D8,E4/D4,,E6/D6,,E2/D2,C/E7/E3,,
5h[4:1]/4h[4:1],,,,6h[4:1]/3h[4:1],,,,
E2/D2,E6/D6,,E4/D4,,E8/D8,,,
1h[4:1]/8h[4:1],,,,2/7h[4:1],E3,C,E7,
5,,75,6,4,,64,5,
3,,53,4,2w6[8:1],,2,,
4,,24,3,5,,35,4,
6,,46,5,7w3[8:1],,7,,
1,,84,7,5,,73,6,
4,,62,5,3-5[8:1]*-7[8:1],,3,,
8,,15,2,4,,26,3,
5,,37,4,6-4[8:1]*-2[8:1],,6,,
7,,12,7,5,,18,6,
4,,87,5,3q8[8:1]*p6[8:1],,3,,
2,,87,2,4,,81,3,
5,,12,4,6p1[8:1]*q3[8:1],,6,,
7h[4:1]/5,,8,1,2h[4:1]/4,,1,5,
6h[4:1]/8,,5,4,3h[4:1]/1,,4,8,
76,,23,,76,,23,,
B8/B4,,B7/B3,,B6/B2,,B5/B1,,
2-7[4:1],,,,6z2z6[1:1],,2,,
,,,,3,,,,
{12}7,8,7,8,7,,2,1,2,1,2,,
6,5,6,5,6,,3,4,3,4,3,,
{8}7-2[4:1],,,,3s7s3[1:1],,7,,
,,,,6,,,,
{12}E1/B8/Cf/B4/E5,,,3,4,3,6,5,6,3,4,2,
6,5,7,3,4,1,6,5,8,1,,,
{8}6-1[4:1],,,,2-4-1-5[1:1],,5,,
,,,,8,,,,
{12}63,,,7h[12:1]/8h[12:1],,,8h[12:1]/1h[12:1],,,1h[12:1]/2h[12:1],,,
3h[12:1]/4h[12:1],,,4h[12:1]/5h[12:1],,,6h[12:1]/5h[12:1],,,72,,,
{8}3-8[4:1],,,,7-5-8-4[1:1],,4,,
,,,,1,,,,
{12}E1/B8/Cf/B4/E5,,,2,4,3,7,5,6,1,3,2,
8,6,7,2,5,4,7,1,8,3,,,
{8}5bw1b[1:2],,,,,,,,
,,,,,,,,
,,,,,,,,
,,,,,,,,
,,,,,,,,
,,,,,,,,
,,,,,,,,
E
&inote_5=(140){8},,,,,,,,
6x/7x,67,,3x/2xqq5[8:9]*qq5[8:9],,,,,
,,,,,,,,
3x/2x,32,,7x/6xqq1[8:9],,,,,
,,,,,,,,
1h[4:1]/5,,6,7,3h[4:1]/8,,7,,
2h[4:1]/6,7,8,,4h[4:1]/7,,6,,
1h[4:1],,4,5,3h[4:1]/6,,7,6,
2h[4:1]/5,,4,5,4h[4:1]/6,,7,,
8h[4:1]/4,,3,2,6h[4:1]/1,,2,,
7h[4:1]/3,2,1,,5h[4:1]/2,,3,,
8h[4:1],,5,4,6h[4:1]/3,,2,3,
7h[4:1]/4,,5,4,E8/E2/E6/E4/C/D2/D4/D6/D8,,,,
7/1-4[8:1],,13,2,7/1-5[8:1],,13,2,
7/1-6[8:1],,13,2,7/1w5[8:1],,1/C/B6/B5/B4,,
2/8-5[8:1],,86,7,2/8-4[8:1],,86,7,
2/8-3[8:1],,8-5[8:1]/6,7,2/8/E8/B7/B6/E6,,72,,
6/4-1[8:1],,42,3,6/4-8[8:1],,42,3,
6/4-7[8:1],,42,3,6/4w8[8:1],,4/C/B7/B8/B1,,
3/5-8[8:1],,57,6,3/5-1[8:1],,57,6,
3/5-2[8:1],,57,6,3/5w1[8:1],,5/C/B8/B1/B2,,
{12}3h[4:1],5,4,5,4,,3h[4:1],5,4,5,4,,
{16}8,,1,,8,,1,,8,,1,,7,,2,2,
{12}6h[4:1],4,5,4,5,,6h[4:1],4,5,4,5,,
{16}1,,8,,1,,8,,1,,8,,2,,7,7,
{12}3h[4:1],5,4,5,4,,6h[4:1],4,5,4,5,,
2h[4:1],8,1,8,1,,7h[4:1],1,8,1,8,,
3h[4:1],4,5,6h[4:1],5,4,2h[4:1],1,8,7h[4:1],8,1,
E1/B8/Cf/B4/E5/B7/B3/A1/A5,,,,,,,,,,,,
7h[4:1],1,2,1,2,,8-5[8:1],1,2,1,2,,
7h[4:1],2,3,2,3,,8-5[8:1],2,3,2,3,,
7h[4:1],3,4,3,4,,8-5[8:1],3,4,3,4,,
7h[4:1],4,5,4,5,,8bv5b[8:1]/2bv5b[8:1],,,,,,
2h[4:1],8,7,8,7,,1-4[8:1],8,7,8,7,,
2h[4:1],7,6,7,6,,1-4[8:1],7,6,7,6,,
2h[4:1],6,5,6,5,,1-4[8:1],6,5,6,5,,
2h[4:1],5,4,5,4,,E1/B8/C/B4/E5/B7/B3/A1/A5,,,,,,
5-8[4:5]*-8[4:5]/4-1[4:5]*-1[4:5],,,,,,,,,,,,
,,,,,,,,,,,,
2h[12:4],1,3,1,3,,8-4[8:1],1,3,1,3,,
7h[12:4],8,6,8,6,,1-5[8:1],8,6,8,6,,
2h[12:4],1,3,1,3,,8-4[8:1],1,3,1,3,,
1x>8[8:5]*>7[28:15]*>6[56:25]/8x<1[8:5]*<2[28:15]*<3[56:25],,,,,,,,,,,,
7h[12:4],8,6,8,6,,7-3[12:1],2,4,2,4,,
2h[12:4],1,3,1,3,,2-6[12:1],7,5,7,5,,
{8}8^5[4:1],,1,2,3^8[4:1],,4,5,
6^3[4:1],,7,8,1w5[8:1],,1/B8/B1/B2/C/B6/B5/B4,,
A8/E1/B8/1h[4:1],A7/E8/B7,,A6/E7/B6,3h[4:1],A5/E6/B5,A4/E5/B4,,
2h[4:1],,,,4h[4:1],,,,
A1/E1/B1/8h[4:1],A2/E2/B2,,A3/E3/B3,6h[4:1],A4/E4/B4,,,
7h[4:1],,,,5h[4:1],E7/B7/B6,E1/B8/B1,E3/B2/B3,
1b^7[8:1]/5b,,1/E5,3,1^6[8:1]/5,,1/E5/B4,3,
1<5[8:1]/5,,1/E5/B4/B5,3,1^6[8:1]/5^2[8:1],,1/5/E1/D1/E5/D5,,
8^2[8:1]/4,,8/E5,6,8^3[8:1]/4,,8/E5/B5,6,
8>4[8:1]/4,,8/E5/B5/B4,6,8^3[8:1]/4^7[8:1],,8/4/E1/D1/E5/D5,,
1v8[8:1]/8,,1/B2,3,1v7[8:1]/7,,1/B2/B3,4,
1v6[8:1]/6,,1/B2/B3/E3,5,7-4[8:1]/3-8[8:1],,7/3/B6/B5/B1/B2,,
8v1[8:1]/1,,8/B7,6,8v2[8:1]/2,,8/B7/B6,5,
8v3[8:1]/3,,8/B7/B6/E7,4,2-5[8:1]/6-1[8:1],,2/6/B3/B4/B8/B7,,
7>3[4:1]/8,,7/E3,4,7>4[4:1],,7/E3/B2,5,
7>5[4:1],,7/E3/B2/B3,6,8<4[8:1]*>4[8:1],,8/D8/D1/A7/A1,,
2<6[4:1]/1,,2/E7,5,2<5[4:1],,2/E7/B7,4,
2<4[4:1],,2/E7/B7/B6,3,1>5[8:1]*<5[8:1],,1/D2/D1/A2/A8,,
{16}E1/E3/E2f/B1/B2,,7,8,7,8,7,8,E7/E1/E8f/B7/B8,,3,4,3,4,3,4,
E5/E3/E4f/B4/B3,,6,5,6,5,6,5,E7/E5/E6f/B6/B5,,2,1,2,1,2,1,
{12}Cf/B1/B2/B3/B4/B5/B6/B7/B8/E2/D2,,78,Cf/B8/B7/B6/B5/B4/B3/B2/B1/E8/D8,,34,Cf/B4/B3/B2/B1/B8/B7/B6/B5/E4/D4,,65,Cf/B5/B6/B7/B8/B1/B2/B3/B4/E6/D6,,12,
{8}A7/A8/D8/A4/A3/D4,,A2/A1/D2/A5/A6/D6,,A6/A7/D7/A3/A2/D3,,A8/A1/D1/A5/A4/D5,,
6<6[4:1]/3,,,,1xs5[8:5],,{16}1,E2,E3,E2,
{20}E3,E2,E3,E2,E3,E2,E3,E2,E3,E2,E3/8,E2,E3,E2,E3,E2,E3,E2,E3,E2,
{12}7h[12:4],8,6,1,5,,2h[12:4],1,3,8,4,,
6h[12:4],7,5,8,4,,3h[12:4],2,4,1,5,,
{8}7q2[4:1]/2,,,,4xs8[8:5],,{12}4,E6,E5,
{14}E6,E5,E6,E5,E6,E5,E6,E5/1,E6,E5,E6,E5,E6,E5,
{12}3b,,,4h[4:1],5,6,7h[4:1],8,1,2h[4:1],3,4,
5h[4:1],6,7,8h[4:1],1,2,3h[4:1],4,5,6,,,
{8}3>3[4:1]/6,,,,8xz4[8:5],,{16}8,E8,E7,E8,
{20}E7,E8,E7,E8,E7,E8,E7,E8,E7,E8,E7/1,E8,E7,E8,E7,E8,E7,E8,E7,E8,
{12}2,,,18,,,54,63,,54,,,
78,61,,12,83,,{8}65,83,43,61,
2p7[4:1]/7,,,,5xz1[8:5],,{12}5,E4,E5,
{14}E4,E5,E4,E5,E4,E5,E4,E5/8,E4,E5,E4,E5,E4,E5,
{12}6b,,,5h[4:1],4,3,2h[4:1],1,8,7h[4:1],6,5,
4h[4:1],3,2,1h[4:1],8,7,6h[4:1],5,4,3w7[8:1],,,
{8}3b/B3/E3/E4/B4/B2/Cf/B5/B1/B6/B8/B7/E6/E7/E8/E1/D8/D7/A6/A7/A8,,,,,,,,
,,,,,,,,
,,,,,,,,
,,,,,,,,
,,,,,,,,
,,,,,,,,
,,,,,,,,
E
