&title=talking
&artist=KANA-BOON
&first=0
&des=-
&lv_5=12+
&inote_5=(140)
{1},
{4},,,5h[1:4],
{1},,,,
{4}5/7,5/4h[4:9],5,5,5,5,5,5,5,5,5,5-1[8:1],
{4}4-2[12:1],5-7[12:1],4w8[8:1],4,
{8}2/6,4,7/3,{16}6,5,{8}7,8,2/6,{16}3,4,
{8}2,1,7/3,{16}6,5,{8}8,1,2/6,{16}3,4,
{8}1,8,7/5,{16}6,4,{8}8,1,2/4,{16}3,5,
{8}1-4[12:1],{16}2,,1-6[12:1],,8,,1,,2,8,1,7,3,5,
{8}4,6,7/5-2[8:1],,6-1[8:1],,5,{16},2h[16:3],
{8},4,,3,2/4,6,7/5,{16}3,4,
{16},6,5,,{8},2,1/3,7,8/6,{16}1,,
{8}2-5[8:1],,7-4[8:1],,1-5[8:1],,8,,
{8}6,3,2/4-7[8:1],,3-8[8:1]/4,,4/3,{16},7h[16:3],
{8},5,,7,6/5,2,3/4,{16}7,5,
{16},2,4,,{8},6,8/7,3,1/2,{16}8,,
{8}7-3[8:1],,2-5[8:1]/7,,8-4[8:1]/2,,1/8,,
{4}3h[1:1],7q4[4:1],,,
{4}5h[1:1],1p4[4:1],,,
{4}3h[1:1],1,7,5,
{4}4h[1:1],6,8,2,
{8}3,2/4,6,7/5,3,4/1,6,8/5,
{8}6/4w8[70#16:1]*w8[70#16:1],,,,4b,,,,
{8}8/3,{16}6<2[6:1],5,{8}7,3>7[6:1],5,4,3,2,
{8}1/7,{16}2qq5[4:1],4,{8}3,2,6,8,,7,
{8}6/5,{16}3>5[4:1],4,2,,3h[8:1],,{8},1,3,7/5,
{8}4,{16}6>8[4:1],4,,4,6,,{8},,4-2[12:1],3,
{8}5-1[8:1],6,4-8[8:1],3,5-7[12:1],6,2-6[8:1],1,
{8}8-4[8:1],7,1-3[12:1],2,5,6,{16}7,5,7,5,
{8}6b,{16}3V17[6:1],4,{8}2,6V82[6:1],4,5,6,7,
{8}8/2,{16}7pp4[4:1],5,{8}6,7,3,1,,2,
{8}3/4,{16}6<4[4:1],5,7,,6h[8:1],,{8},8,6,2/4,
{8}5,{16}3<1[4:1],5,,5,3,,{8},,6,
{8}2-5[8:1],6-1[8:1],2,6,4-8[8:1],7-5[12:1],4,7,
{8}1-3[12:1],4-8[8:1],1,4,5-2[8:1],1-6[8:1],5,1-5[8:1]*<1[4:3],,
{1}1b,
{8}3,3,2/4,,6,6,7/5,,3,4,7/5,6,4/5,3,1-7[12:1]/2,,
{4}1-3[12:1],1-5[8:1],1,{16}2b/8b,,2,4,
{16}3,7,5,6,2,8,5,6,2,4,3,8,1/7,,,,
{16}3/4,,7/5,,1/2,,3,5,4,6,1,8,2/7,,,,
{16}1h[8:1],,5,,1h[8:1],,5,1,5h[8:1],,1,,2,2,8,3,
{8}7,6/5,4/3,{16}2<4[4:1],8,,,2/4,,,,,,
{8},,4q6[4:1],,7,,,8h[4:1],
{8}6,4,2h[4:1],7,5,3,2,1,
{8},,6q8[4:1],,2,,,1,
{12}2,2,2,8,8,8,1-6[8:1]*-4[8:1],,,1,,,
{8}7b/3b,4,2/5,{16}6,5,7/4,,3,,2/4,,6,5,
{16}7/4h[8:3],,3qq7[8:3],,5,,3,,,,,,5,,,,
{16}7/5,,6,,2/4,,3,5,5,4,6h[16:4],,,,5,4,3h[8:1],,
{8}7h[8:1],2h[8:1],6h[8:1],1,1/5,{16}2/6,3/7,4/8,,
{16}3,2,1,4,7,6,5,8,3,2,1,4,7,6,5,8,3,2,1,4,7,6,5,8,3,2
,1,4,7h[4:1],,,,
{24}4,5,6,1,2,3,5,6,7,2,3,4,6,7,8,3,4,5,7,8,1,2,3,4,
{16}1/5,,,7/3,,,5/4,,2/7,,,,3,6,2,7,
{16}1h[8:1],,8,1h[8:1],,6,1h[8:1],,4,1h[8:1],,6,1h[8:1],,8,1h[8:1],
{16},2,1h[8:1],,4,1h[8:1],,6,1h[8:1],,8,1h[8:1],,3,1,,
{16}1h[4:1],,,,3,1,4,2,5h[4:1],,4,,7,5,8,6,
{16}1h[4:1],,8,,3,1,4,2,5h[4:1],,2,,4,,,,
{24}3,4,3,{8}4,2/5,1/8,{24}6,5,6,5,,,7/4,,,2/5,,,
{24}3,4,3,{8}4,2/5,1/8,{24}6,5,6,5,,,7/4,,,2/6,,,
{16}1/5,,3,2/4,,6,7/5,,3,2/4,,6,7/5,,2,,
{32}3/7,8,1,2,3,4,5,6,7h[4:1],,,,,,,,4,3,2,1,8,7,6,5,4,,8,,8,,3,,
{8}3v5[8:1],6,3^8[8:1],7,3pp5[8:1],5>1[4:1],3,1<5[4:1],
{8},5p3[4:1],,8,8h[8:1],,2h[8:1]/6,4,
{8}7h[8:1]/5,3,2h[8:1]/6,4,7h[8:1]/5,3,2h[8:1]/6,4,
{8}7/5,{16}3,4,{8}2,3,7/5,6,2/4,3,
{8}6/5,7/5,8/5,1/5,1/5,1/4,1/3,1/2,
{8}3/4,6/5,8/7,1/2,2/4,5/4,{16}7,7,5,5,
{8}4b/7b,{16}6<2[6:1],5,{8}7,3V17[6:1],5,4,3,2,
{8}8/6,{24}7-3[8:1],6,5,{8}3V16[6:1],7,5,4,3,2/4,
{8}6/5,{16}3<8[4:1],4,1,,2/3,,{8}2,3,4,7/5,
{8}3/4,{16}5>7[4:1],4,,6,5,,{8}6,5,4-7[12:1],6,
{8}3-8[8:1]/4,2,5-1[8:1]/3,6,5/2-4[12:1],3,2/6-2[8:1],5,
{8}8^3[8:1]/6,1,8^5[8:1]/6,7,8/2,1,{16}3,3,5,5,
{8}2b/6b,{16}3V17[6:1],4,{8}2,6<2[6:1],4,5,6,7,
{8}1/3,{24}2-6[8:1],3,4,{8}6V83[6:1],2,4,5,6,5/7,
{8}3/4,{16}6>1[4:1],5,8,,7/6,,{8}7,6,{16}5,,3,4,
{8}2/5,{24}7-2[8:1],6,5,{8}3-6[8:1],7b,3b,,1qq7[4:1]/8,1,
{8}7p1[4:1],,1>6[4:1],,6p8[4:1],,8<1[4:1],,
{8}5,,8h[4:1],,1h[4:1],,8pp2[4:1],,
{8}2q8[4:1],,8<3[4:1],,3q1[4:1],,1>8[4:1],,
{8}4,,1h[4:1],,8h[4:1],,
{8}1,8-6[12:1],4-2[12:1],8-4[8:1],4-8[8:1],8,1,3-1[12:1],7-5[12:1],3-7[8:1],7-3[8:1],3,4,5-7[12:1],1-3[12:1],5,1s5[8:1]*<1[4:3],,1b,,,,,,,,
{8}6,5,7/5,5,7/5,5,7/5,5,7/5,5,7/5,5,7/5,5,7/5,5,
{8}5-1[8:1],6,4-2[12:1],3,5,7,{16}8,1,8,1,
{8}2/7,3,1/7,{16}3,4,{8}1,3,1/7,{16}3,4,{8}1,6,8/2,{16}6,5,{8}8,6,8/2,{16}6,5,
{8}8,3/5,1/7,{16}3,4,{8}2/5,6/4,1-5[8:1]/8-6[12:1],2/7,1-3[12:1]/8-4[8:1],,1-5[8:1]/8-6[12:1],,1-3[12:1]/8-4[8:1],,1/8,{16},1b,,,1b,
