&title=リテラチュア
&artist=上田麗奈
&first=0.69
&des=Utashi
&lv_5=13
&inote_1=
&inote_5=(118)
{16}3h[16:6],,,5h[16:3],,,,,4h[16:6],,,6h[16:3],,,,,5h[16:3],,,7h[16:3],,,3,,4,,5,,6p5>7[8:6],,3,,3h[8:6],,
{8},,,,,,2,1b/Ch[4:2],,,,,,,,
{16}4h[16:2],,,6h[16:2],,,5-1[4:3],,,,,,,,,,B4,,,B7,,,E2,,,,,,,,,,
5h[16:2],,,2h[16:2],,,4-8[4:3],,,,,,,,,,B6,,,B2,,,E8,,,,,,
5,,4,,3h[16:12],,B7,E7,,B1,,B5,,,,,,,5,4,
5q8[4:2]*p2[4:2],,,,,,,,,,,,,,,,
3qq5[4:2]/6,,,,,,,,5,,,,7,,,,8h[16:3]/2,,,4-1[8:1],,,6h[8:1],,,,,,,,,,
6pp3[4:2]/2,,,,,,,,4,,,,2,,,,1h[16:3]/7,,,5<8[8:1],,,3h[8:1],,,,,,
{8}4,5,3/6,3,3/8,3,2/5,2,2/8,2,3/6,3/6,2/7,2/7,1b-5[8:1],2b/8b,1b,,
{8}1<5[8:1],,2,3>8[8:1],,8,7,6-3[8:1],,3,2,1-5[8:1],,8,7,,
6p2[8:1],3,2,1>4[8:1],,8,7,6q3[8:1],,3,4,5-1[8:1],,7,8,,
{48}7x,6x,5xh[48:82],{16},,,{4},,,{48}2x,3x,4hx[48:34],{16},,,{4},,,
{8}1-4[8:1],5,6,7,8-5[8:1],3,2,1,
{16}2b/4b,,,1b/8b,,,7b/5b,,{32}E2,E3,E4,E5,E6,E7,E8,E1,1x,2x,3x,4x,5x,6x,7x,8x,
{8}1x-5[8:1],8,7-4[8:1]/1,8,2,,7/8-4[8:1],1,8/2,,7/8-4-8[4:1],1,8/2,3,1,,
7/1>4[8:1],8,7p3[8:1]/1,8,2h[8:3],,1,8,
{16}7b/Cf,,,8b/Cf,,,1b/Cf,,,2b/Cf,,,Cf/B1/B7/B5/B3,q,,,
{8}5pp4[20:9]/3,6,3qq4[5:1],2,3,,
7/8x-4[8:1],1,8/2,,7/8-4-8[8:3],1,8/2,3,2,1,
{4}7<4[4:1],4>1[4:1],1<5[4:1],5>1[4:1],1b<5b[4:1],5b>1b[4:1],1b<5b[4:1],5b,
{16}1-5[8:1],,,7,1>3[8:1],,6,,{8}1/7<5[8:1],8,1/7,8,8/4>1[8:1],,4<7[8:1]/6,5,4>1[8:1]/2,3,4<7[8:1]/6,5,4/2-5[8:1],,8-4[8:1]/2,7,1-5[8:1]/8-6[8:1],2,1/8,,
{4}3-6[4:1],6p2[4:1],2q7[4:1],7,
{16}1>3[8:1],,,7,1-5[8:1],,6,,{8}1/7-3[8:1],8,1/7,8,1/5<8[8:1],,5>2[8:1]/3,4,5<8[8:1]/7,6,5>2[8:1]/3,4,5/7-4[8:1],,2x-5[8:1]/7,1,2,7,6,4,3/7,2,1h[4:1]/8,,
{32}E8,E7,E6,E5,E4,E3,E2,E1,8x,7x,6x,5x,4x,3x,2x,1x,
{8}8xw4[8:9],,,,,,,,,,,,B6,E5,B3,Ch[8:9],
E
