&title=[史前谱面]Androgynos ver.A
&artist=WAiKURO
&des=Dororo
&first=1.28
&lv_6=14+
&inote_6=
(192){8}
6-2[8:1],,,8-5[8:1]*-3[8:1],,,,,
5-1[8:1],,,8-3[8:1],,8-5[8:1],,,
3-7[8:1],,,1-4[8:1]*-6[8:1],,,,,
4w8[8:1],,,,,2b/6b,
{16}
4,5,4,5,
{8}
2-6[8:1],3,4,5-8[8:1]*-2[8:1],,5,,,
1-5[8:1],,5,6-3[8:1],7,6-1[8:1],5,,
7-3[8:1],6,5,4-1[8:1]*-7[8:1],,4,,,
1-5[8:1]/5-1[8:1],,15,,,3b/7b,
{16}
8,1,8,1,
{8}
2-6[8:1]/7,,27,,2-4[8:1]/7,,27,,
2-5[8:1]/7,,27,,2-6[8:1]/7,,27,7,
2/7-3[8:1],,27,,2/7-5[8:1],,27,,
2/7-4[8:1],,27,,2/7-3[8:1],,27,2,
8,8,86,8,8,8,82,8,
1,1,13,1,1,1,17,1,
{16}
5,4,5,4,6,3,6,3,7,2,7,2,8,1,8,1,
{32}
8b,7,6,5,4,3,2,1,8bw4[8:1],7,6,5,4,3,2,1,
{8}
8b,,8b,,
6h[8:1],5,6h[8:1],7,6h[8:1],5,6h[8:1],7,
6h[8:1],5,6h[8:1],7,6h[8:1],5,6h[8:1],7,
3h[8:1],4,3h[8:1],2,3h[8:1],4,3h[8:1],2,
3h[8:1],4,3h[8:1],2,1-4[8:1]/8-5[8:1],18,,,
12,8,12,3,12,8,12,3,
12,8,12,3,12,8,12,3,
78,1,78,6,78,1,78,6,
7b^2[8:1]/6bq3[8:1],,,,
{16}
16,,,83,,,4b/5b,,
,,1,8,
{8}
1,,2q6[8:1],2,1,1,
7-3[8:1],7,8,8,1q5[8:1],1,8,8,
5-1[8:1],5,4,4,3p7[8:1],3,4,4,
8^5[8:1],1^4[8:1],8,1,,,45,,
1-5[8:1],1,8,8,7p3[8:1],7,8,8,
2-6[8:1],2,1,1,8p4[8:1],8,1,1,
4-8[8:1],4,5,5,6q2[8:1],6,5,5,
{16}
4,5,3,6,4,5,3,6,4,5,3,6,4,5,3,6,
{8}
5-8[8:1]/4,,5-2[8:1]/4,,5-1[8:1]/4,,54,,
1-4[8:1],2-6[8:1],1,2,5^8[8:1],4,3,2,
7/8-5[8:1],,7-2[8:1]/8,,7-3[8:1]/8-4[8:1],,78,,
1-5[8:1],8,7,6,4-8[8:1],3,2,1,
5/4-1[8:1],,5/4-7[8:1],,5/4-8[8:1],,54,,
8-5[8:1],7-3[8:1],8,7,4^1[8:1],5,6,7,
2/1-4[8:1],,2-7[8:1]/1,,2-6[8:1]/1-5[8:1],,12,,
8-4[8:1],1,2,3,5-1[8:1],6,7,8,
1-7[8:1],6,1-5[8:1],4,1-3[8:1],6,1-5[8:1],4,
1^6[8:1],6,1^4[8:1],4,1,,
{16}
8,1,8,1,
{8}
8-2[8:1],3,8-4[8:1],5,8-6[8:1],3,8-4[8:1],5,
8,,
{16}
27,27,,,83,,,16,,,4b/5b,,
{8}
34,3,32,3,34,3,32,3,
56,6,67,6,56,6,67,6,
{16}
1,8,1,8,2,7,2,7,3,6,3,6,4,5,4,5,
{24}
8b,7,6,5,4,3,2,1,8,7,6,5,
{32}
8b,1,2,3,4,5,6,7,8,1,2,3,4,5,6,7,
{1}
8/1>1[2:7],,,,
{8}
5>5[2:7]/4,,,6,6,,,2,
2,,,8,8,,,5,
5,,,3,3,,,4,
4^1[2:1],,,,,,,,
3-7[8:1],,,2-5[8:1],,,6-3[8:1],,
8-4[8:1],,,
{16}
1-7[8:1],,,,3-5[8:1],,,2-6[8:1],,,
{8}
6-2[8:1],,,7-4[8:1],,,3-6[8:1],,
5-1[8:1],,8^5[8:1],,
{32}
18,,,,4,3,2,1,,,,,,,,,
{8}
3-7[8:1],8,1,2-5[8:1],,7,6-3[8:1],,
8-4[8:1],3,2,
{16}
1-7[8:1],,,,2-6[8:1],,,3-5[8:1],,,
8,,7,,1,,2,,3,6,3,,5,4,5,4,
{24}
8b,1,2,3,4,5,6,7,8,1,2,3,
{32}
8b,7,6,5,4,3,2,1,8,7,6,5,4,3,2,1,
{16}
8qq4[2:1]*pp4[2:1],,,,,,,,,,,,,,,,
2,2,8,8,1,1,7,7,2,2,8,8,1,1,7,7,
2,2,1,1,8,8,7,7,
{24}
3,4,5,6,3,4,5,6,3,4,5,6,
{32}
7h[4:3],,,,,,,,,,,,,,,,1,2,3,4,5,6,,8b,,,,,,,,,
{8}
45,,4-7[8:1]/3-8[8:1],25,43,,7-3[8:1]/1,8,
1-5[8:1]/7,8,
{16}
17,,4b,,,2b/6b,,,
{8}
8-5[8:1]/7-4[8:1],16,
8-3[8:1]/7-2[8:1],,78,,
{16}
4h[8:1]/5h[8:1],,,1h[8:1]/2h[8:1],,,7h[8:1]/8h[8:1],,
{8}
,,7^2[8:1]/3^6[8:1],2^7[8:1]/6^3[8:1],,,,27,
18,,5-2[8:1]/6-1[8:1],47,56,,8-3[8:1],1-6[8:1],
8,1,,
{16}
6,75,,3,24,,18,,18,,
6-2[8:1],,,67,,,3,4,3-7[8:1],,,23,,,5,6,
5-1[8:1],,,45,,,8,7,8b-5[8:1],,,8b-3[8:1],,,8b,,
,,5,4,
{8}
5,36,36,,2-6[8:1]/8,1,
8-4[8:1]/2,1,
{16}
28,,5b,,,3b/7b,,,
{8}
1-4[8:1]/2-5[8:1],83,
1-6[8:1]/2-7[8:1],,12,,
{16}
1h[8:1]/8h[8:1],,,5h[8:1]/6h[8:1],,,3h[8:1]/4h[8:1],,
{8}
,,1v4[8:1]/5v8[8:1],4^1[8:1]/8^5[8:1],,,,36,
4,5,4-7[8:1]/3-8[8:1],25,34,,4-7[8:1],5-2[8:1],
4,5,,
{16}
2,31,,7,68,,45,,45,,
8-4[8:1],1,7,2,8,,5,,
{32}
45,,,,2,1,8,7,6,,,,7,8,1,2,
{8}
3V17[8:1],,3V57[8:1],,3bw7[8:1],,,,
7-5[8:1],,8-4[8:1],,7-5[8:1],,8-4[8:1],,
7-3[8:1],,8-2[8:1],,7-3[8:1],,8-2[8:1],,
7^4[8:1]/8,,7/8^3[8:1],,78,,45,
{16}
5,4,
{8}
5^8[8:1],1,2,3,
{16}
18,,56,56,,34,34,,
{8}
2-4[8:1],,1-5[8:1],,2-4[8:1],,1-5[8:1],,
2-6[8:1],,1-7[8:1],,2-6[8:1],,1-7[8:1],,
1^6[8:1]/2^5[8:1],,12,,
{16}
5/4h[8:1],,,4/3h[8:1],,,23,,
5h[8:1]/4,,,6h[8:1]/5,,,7h[8:1]/6,,,8h[8:1]/7,,,18,,1b/8b,,
{24}
,,,37,48,15,
{8}
26,,4-7[8:1]/5-2[8:1],36,45,,
5-1[8:1]/6,8,45,2,3/4-8[8:1],1,45,7,
7/8-4[8:1],5,18,3,1-5[8:1]/2,4,18,6,
45,6,18,1-6[8:1]/8-3[8:1],27,18,,4b/5b,
45,26,45,37,45,26,45,
{16}
18,27,
36,,3b/6b,,
{32}
5,6,7,8,1,2,3,4,
{16}
5h[8:3],,,3,2,,4,,
1,8,3,6,1,8,3,6,2,7,4,5,2,7,4,5,
{24}
1b,2,3,4,5,6,7,8,1,2,3,4,
{32}
1b,8,7,6,5,4,3,2,15,84,73,26,15,84,73,26,1b>1[1:2]/5b<5[1:2],
{1}
,,,
E
