&title=万年置き傘にご注意を
&artist=黄昏フロンティア
&first=0
&des=kogasa
&lv_5=13
&inote_5=(174)
{1},
{32},
{16}25,,,,3,,4,,,,4,,2,,,,
2,,5,,,,5-3[8:1],,3-7[8:1],,,,,,,,
47,,,,6,,5,,,,5,,7,,,,
7,,4,,,,4V68[4:1],,6-2[8:1],,,,,,,,
45,,,,7,,78,,,,2,,12,,,,
3,,3/5-8[8:1],,,,2,,1p7[4:1],,,,,,,,
6,,,,6,,57,,,,3,,24,,,,
18,,2-5[8:1]/7,,,,6,,6-1[8:1],,,,6p3[4:3]/2-5[8:1],,,,
2b/6,,,,,,,,,,,,2h[4:1],,,,
4qq5[4:2],,,,,,,,,,,,1h[4:1],,,,
8p3[4:1],,,,3>8[4:1],,,,8p3[4:1],,,,3>7[4:1],,,,
7<7[4:2]*<7[4:2],,,,,,,,,,,,,,,,
4/5-7[8:1],,,,3,,3-5[8:1],,,,6,,8,,7,,
7,,5/8h[4:2],,6,,6,,5,,5,,4/6pp3[4:3],,,,
1h[8:2],,,,,,2h[4:1],,,,,,1-5[8:1],,8,,
7,,,6,,,45,,8,7,6,5,4,3,2,1,
8V62[4:1]/4,,,,2,,1-5[8:1],,,,8,,7,,4/6V48[4:1],,
,,3,,2,,1,,8,,7,,5qq3[8:1]/6,,4,,
3>8[8:1]/5,,,,5pp7[8:1],,,,6>2[4:1],,,,2<6[4:1],,,,
6>7[4:2]*p7[4:2],,,,,,,,,,,,,,,,
1V38[4:1]/5,,,,8,,7-4[8:1],,,,8,,1,,5/2<7[8:1],,
,,6,,5,,4,,35,,2,,1pp8[4:2]/5,,,,
15,,,,7,,7,,,,6,,45,,3,,
1b/6b,,,,3b/8b,,,,4b-1[8:1]/5b-8[8:1],,,,,,,,
4/5h[8:4],,,,,,2,,2h[4:1],,,,3,,3,,
1h[4:1]/4h[4:1],,,,,,2,,2h[4:1]/3h[4:1],,,,,,4,,
5/3h[8:4],,,,,,7,,7h[4:1],,,,6,,6,,
8h[4:1]/5h[4:1],,,,,,7,,7h[4:1]/4h[4:1],,,,,,4,5,
4-1[8:1],,7-4[8:1],,4,,7V15[4:1],,,,3,,2-6[8:1],,,,
7,,7,,3,4,5,6,8-4[8:1],,1,,28,,3,,
5-8[8:1],,2-5[8:1],,5,,2,,,,8,1,8,,36,,
,,5,,24,,,,4,,57,,46,,3,4,
3h[4:2],,,,4,,5,,6h[4:3],,,,3,,4,,
{12}5,,,2,4,3,7,5,6,3,4,5,
{16}
6h[4:2],,,,5,,4,,3h[4:2],,,,6,,,,
5,,,,4-2[8:1]/6-4[8:1],,7,,4-8[8:1]/6,,,,,,2,3,
47,,25,,16,,3>8[8:1]/8,,,,7,6,5,,2>5[8:1],,
,,6,,7,,8,1,8,1,8,,26,,3,,
45,,26,,37,,18,,,,1pp8[4:2]/5pp4[4:2],,37,,,,
,,,,,,,,1,5,1,5,2,6,3,5,
4b>5[4:7],,,,,,,,,,,,,,,,
,,,,,,,,,,,,2h[8:1],,,,
1s5[4:4],,,,,,,,,,,,,,,,
,,,,,,46,,3,4,3,,25,,16,,
7V51[4:1]/8,,,,2-6[8:1],,3,,,,,,4-8[8:1]/5,,3,,
2>5[8:1],,1,,8,,7h[8:3],,,,,,6pp4[8:5],,5,,
4,,,,3,,3,,,,2,,3/5-1[8:1],,64,,
7,,7,8,7,,16,,3,4,2,4,3,,46,,
8V62[4:1]/2,,,,3,,4-1[8:1],,,,5-8[8:1],,6,,4V26[4:1],,
,,6,,7,,8,,8,7,6,,45,,1,2,
5V73[4:1]/3,,,,2,,1-4[8:1],,,,8-5[8:1],,7,,1p8[4:1],,
,,,,7,,6,,35,,2,1,2-5[8:1],,38,,
7,,6-1[8:1],,45,,,,,,3-8[8:1],,45,,,,
,,4,,5,,6,5,6<1[8:1],,,5,,,4,,
3<5[12:1],,,,6-2[8:1],,7,,6<1[8:1],,,,3,,2,,
2-5[8:1]/8,,,1,2,,6,,8,,3,4,3,,25,,
4V26[4:1]/7,,,,7-3[8:1],,8,,,,,,5-1[8:1]/2,,6,,
7<4[8:1],,8,,1,,2h[8:3],,,,,,3pp8[8:5],,5,,
7,,,,8,,7,,,,6,,5-1[8:1],,4,,
,,2,3,45,,28,,7,6,45,,17,,53,,
2-4[8:1],,1,,2,,1-5[8:1],,2,,1,,2-6[8:1],,1,,
2,,1-5[8:1],,2,,1,,3>8[8:1],,4,,5,,6>3[8:1],,
7,,8,,1-5[8:1],,28,,1,,6,,3>8[8:1]/5,,8<5[8:1],,
3,,4-8[8:1],,3,,2/4,,1,,3,4,2,1,2,,
4/5<1[4:1],,,,2,,3,,,,4/5-2[8:1],,6,,5/7p4[4:2],,
,,,,3,,,,2,,,,1,,5,2,
5<1[4:1],,,,2,,3,,,,4<2[4:2]/5,,3,,24,,
,,,,3,,,,45,,3,4,3>5[8:4],,3/8,,
1h[8:5],,,,,,,,,,4,,3,,5,,
,,3,,4,,5,,6,,7,,2,1,2,,
3/8-4[8:1],,,,3,,2,,,,1,,3,,5,,
46,,2,4,2,,3,,7,,3,4,5,,36,,
2<3[4:5]/7,,,,,,,,,,,,,,,,
,,,,,,,,,,,,6h[8:1],,,,
7>6[4:5],,,,,,,,,,,,,,,,
,,,,,,,,,,,,3h[8:1],,,,
4b/5b,,,,,,,,,,,,,,,,
,,,,,,,,,,,,,,,,
