&title=Lacrimosa
&artist=Abel & RiraN
&first=0
&des=ParrotNotFound
&clock_count=4
&lv_5=14
&inote_5=(222){1},,
{1}4p5[4:14]/6<3[4:14],,,,4>5[4:14]/5p4[4:14]b,,,,
{4}1/2,1/2,3/8,3/8,4/7,4/7,6/5,6/5,8/7,8/7,6/1,6/1,5/2,5/2,3/4,3/4,
{8}1,1,7,7,3,3,5,5,4/3,3,5/2,2,6/1,1,7/8,8,
{16}7,6,5,4,3,2,1,8,7,6,5,4,3,2,1,8,{1}7bxh[1:1]/2q5[2:1]b,
{4}Cf,,{8}B3/E4,B5/E6,B8/E8,1bx,7xh[8:1]/2-4[8:1],,7xh[8:1]/2-5[8:1],,7xh[8:1]/2,,7xh[8:1]/3x,,
{8}8bx/Ch[8:1],,,,1xh[16:1]/7h[16:1],1xh[16:1]/7h[16:1],2xh[16:1]/6h[16:1],2xh[16:1]/6h[16:1],{32}3x/7h[4:1],4x,{16}5x,,,,,{32}2x/6h[4:1],3x,{16}4x,,,,,{32}3x/7,4x,{16}5x,,,
{4}1bx/Ch[8:1],,{8}B6/E6,B4/E4,B1/E2,8bx,2xh[8:1]/7-5[8:1],,2xh[8:1]/7-1[8:1],,2xh[8:1]/7,,2xh[8:1]/7x,,7bx,,{32}B6,B5,B4,B3,B2,B1,B8,B7,{24}E6,E5,E4,E3,E2,E1,{4}E8/Ch[8:1],{8}1x,2x/8x,3x/7x,4x/6x,5x/B5f,,,,
{4}Cf/1bx,,{8}B2/E2,B8/E8,B5/E6,4bx,6xh[8:1]/3-1[8:1],,6xh[8:1]/3-5[8:1],,6xh[8:1]/3,,6xh[8:1]/3x,,
{8}1bx/Ch[8:1],,,,8xh[16:1]/2h[16:1],8xh[16:1]/2h[16:1],7xh[16:1]/3h[16:1],7xh[16:1]/3h[16:1],{32}6x/2h[4:1],5x,{16}4x,,,,,{32}7x/3h[4:1],6x,{16}5x,,,,,{32}6x/2,5x,{16}4x,,,
{8}1b/2,1/2,3/8,3/8,4/7,4/7,6/5,6/5,8bxh[16:1]/7,8/7,6/1,6/1,5/2,5/2,3/4,3/4,
{16}1,8,1,8,2,7,2,7,3,6,3,6,4<4[4:3]b,5,4,5,{1}4h[4:3],
{8}1/8,2,1/8-4[8:1],7,8/1,,7/3,,2/8,1,2/8-4[8:1],1,2-5[8:1]/8-5[8:1],,8/2,,
{8}8/2,2,7/1,7,8/3,3,6/4,6,
{16}8/1-3[8:1],,8,,7/1-4[8:1],,7,,1/6,,,,5,6,7,8,
{4}5/1x<5[4:1],{8}5,3,1xq5[4:1],,5,7,1xp5[4:1],,5,3,1x,,
{16}5/1,2/6,3/7,4/8,5bxh[8:1]/1bxh[8:1],,,,5/1,8/4,7/3,6/2,5bxh[8:1]/1bxh[8:1],,,,5/1,2/6,3/7,4/8,5bxh[8:1]/1bxh[8:1],,,3bxh[8:1]/7bxh[8:1],,,1x/8x,,{32}7,6,5,4,3,2,1,8,{8}7bxh[8:1]/3,,
{8}8-4[8:1]/1,7,8/1-5[8:1],2,1/8,,8/2-5[8:1],3,8/2,,8/7-4[8:1],6,8/7,,{16}8,1,2,3,
{8}5-1[8:1]/4,6,5/4-8[8:1],3,4/5,,5/3,4,5/2,,5/6,7,5/8,,
{16}4/8,7/3,6/2,5/1,4bxh[8:1]/8bxh[8:1],,,,4/8,1/5,2/6,3/7,4bxh[8:1]/8bxh[8:1],,,,4/8,7/3,6/2,5/1,4bxh[8:1]/8bxh[8:1],,,6bxh[8:1]/2bxh[8:1],,,8x/1x,,{32}2,3,4,5,6,7,8,1,{8}2bxh[8:1]/6,,
{8}1/8,1/8,{16}1/8,2/7,3/6,,
{16}5bxh[8:1]/2bxh[8:1],,,7bxh[8:1]/8bxh[8:1],,,3bx/6bx,,4bxh[8:1]/7bxh[8:1],,,2bxh[8:1]/1bxh[8:1],,,6bx/3bx,,
{32}4bx,5x,6x,7x,8x,1x,2x,3x,{12}4x/8x,7x,6x,1,8,7,2,1,8,3,2,1,4,3,2,
{8}1h[4:1]/5,,Cf,,B7f/2bx,,B4f/6bx,,
{1}8bp5>1[2:3]b/1bq4<8[2:3]b,,
{1}4p5[4:14]/5<4[4:14],,,,3q4[4:14]b/4<3[4:14],,,,
{2}1p4<1[2:7]b,C,,C,,C,,C,
{2}8q7<8[2:7]b,C,,C,,C,,C,
{4}B1,B2,B3,B4,B5,B6,B7/3xh[4:1],B8,B1/5xh[4:5],B2,B3,B4,B5,B6,B7/3xh[4:1],B8,B1/6xh[4:3],B2,B3,B4,B5/1xh[4:3],B6,B7,B8,B1/6xh[4:3],B2,B3,B4,B5/2xh[4:3],B6,B7,,
{4}1x/8x,2,2,2,1/8,7,7,7,3/6,4,4,4,3/6,7,7,7,
{8}5bx,5,6,6,4,4,7,7,3b,3,8,8,1,1,2,2,
{16}8x,2x,8x,2x,8x,2x,8x,2x,7x,1x,7x,1x,7x,1x,7x,1x,{4}8x-4[8:1],,
{4}3bxh[8:1]/6bxh[8:1],2bxh[8:1]/7bxh[8:1],1bxh[4:3]/8bx>4[2:1]b,,,,
{4}8bxh[4:3]/1bx<4[2:1]b,,,,
{8}1bx/8bx-4<7[2:1]b,1x,1x,1x,1x,1x,1x,1x,
{16}2b,8,2,8,2,8,2,8,1,7,1,7,1-4[8:1]b,7,1,7,
{8}1bx-6[8:1]b/5xh[8:1],,1bx>3[8:1]b/5xh[8:1],,1bx<7[8:1]b/5xh[8:1],,1bx-4[8:1]b/5xh[8:1],,1bx-6[8:1]b/5xh[8:1],,1bx>3[8:1]b/5xh[8:1],,1bx/5xh[8:1],,{16}5bx,6,7,8,
{8}1bx/5bx,1x/5x,1bx,8x,{16}7bxh[8:1]/2bxh[8:1],,,,{8}8bx/1bx,2bx/7bx,3bx/6bx,,6bx/5bx,7bx,{16}8bx/1bx,2bx/7bx,3bx/6bx,,{8}5bx/3bx,6bx,
{16}7b,8,7,8,6b,1,6,1,5b,2,5,2,4b,3,4,3,1b,2,1,2,8b,3,8,3,7b,4,7,4,6b,5,6b,5,
{16}7b,1,7,1,8b,2,8,2,1b,3,1,3,8b,2,8b,2,8b,7,6,5,2b,3,4bx,5,8bx,7bx,6bx,,{8}1bx/8bx,7bx/2bx,6bx/3bx,
{8},6x/4bx,3bx,
{16}5bxh[8:1]/2bxh[8:1],,,7bxh[8:1]/8bxh[8:1],,,3bx/6bx,,4bxh[8:1]/7bxh[8:1],,,2bxh[8:1]/1bxh[8:1],,,6bx/3bx,,2bx/7bx,,1bx,8bx,1bx,,7bx,,
{8}6bx/5,6bx,7bx/4,7bx,{16}2bx,3bx,4bx,,3x/8bx,2x/7bx,1x/6bx,,1bx,,,,1b/8b,,1bx/8bx,2bx/7bx,3bx-7[12:1]b/6bx-2[12:1]b,,,,3b/6b,,,,
{4}1bx-6[8:1]/8bx,1/7bx-4[8:1]b,7/3bx-8[8:1],3/6bx-2[8:1]b,
{8}6/1bx-5[8:1],,1-3[8:1]b/8bx-4[8:1],,1b/8b,,6b/2x,,
{4}8bx/3bx-8[8:1],3/6bx-3[8:1]b,6/1bx-6[8:1],1/5bx-1[8:1]b,
{8}5/3bx-1[8:1],,3,,4b/6b,5b,4b/6b,3b,
{4}7bx-3[8:1]/2bx,7/2bx-5[8:1]b,2/6bx-1[8:1],6/3bx-6[8:1]b,
{8}3/8bx-4[8:1],,1bx-5[8:1]b/8-6[8:1],,1b/8b,,3bx,2bx,
{4}1bx/6bx-1[8:1],6/2bx-5[8:1]b,2/8bx,
{8}4bx/8b,3bx,2bx/6b,1bx,8bx/6b,,1b/8bx,2b/7bx,3b/6bx,4b/5bx,
{4}2bx/7bx-3[8:1]b,1b-5[8:1]b/7b<5[8:1]b,7b/1b,{8}7b/8b,7b/1b,
{4}7bx/2bx-6[8:1]b,8b-4[8:1]b/2b>4[8:1]b,2b/8b,{8}7b/2b,7b/2b,
{4}8b-6[8:1]b/1b-5[8:1]b,1b-3[8:1]b/8b-4[8:1]b,1b/8b,
{8}8b/2b,8b/2b,1bx/3bx,1b/3b,8b/2b,,1bx/3b,8bx/3b,7bx/3b,6bx/3b,
{8}8bx/4b,8b/4b,7b/3b,7b/3b,6b/2b,6b/2b,5b/1b,5b/1b,
{8}8b/7bx,1b/6b,2b/5b,4b/3b,1bx/2b,8b/3b,7b/4b,5b/6b,
{16}7bx,6bx,5bx,4bx,3bx,2bx,1bx,8bx,
{32}7bx/2bx,3,4,5,6,7,8,1,2bx,3,4,5,6,7,8,1,
{4}2bx-6[8:1]b,2b>5[8:1]b/1b<6[8:1]b,1bw5[8:1]b/2b,1b/Cf,
{1}3bxq5[4:15]b/7bxq1[4:15]b,,,,,,
