&title= カーテンコール (Curtain Call)(feat. CONA)
&artist=吐息、CONA
&first=1.045
&lv_5=14.0
&des_5=ZZGount
&inote_5=
(125){12}C,,Ch[4:1],{24},,,,,1V35[24:31],,,,,,,,,,,,C,
,,,,,,,,,,,C,,,,,,,,,,,,A4,
,,,,,,,,,,,5V71b[8:11],,,,,,,,,,,,C,
,,,,,,,,,,,C,,,,,,,,,,,,A8,
,,,,{6}7-4[12:1]/2-5[12:1],{12},D8/D2,{24},,,,6h[8:1]/3h[8:1],,,,,,,4-1[12:1]`5-8-5b[1:3],
,,,,,5b/A4,,,,,2xh,B2,,,,,3xh,B3,,,,,4xh,B4,
B1,1xh[4:9],{1},,{4},{16},{48},{12}2/6-4[12:1],
{24},A7/A3,,,6/2-8[12:1],,,C,,,{12}2/4-8[12:1],
{24},B3,,,4/5x-1[12:1],,,A6,,,{12}5/6x-2[12:1],{24},A7,,,6/7x-3[12:1],,,A8,,,{12}7/8x-4[12:1],
{24},A1,,,8x/1x-5[12:1],,,A2,,,{12}1/8-4[12:1],{24},A7,,,8/2>5[12:1],,,E6,,,{12}2/6<1[12:1],
{24},B5,,,6/4-2[12:1],,,E1,,,{12}4/1-7[12:1],{24},E3,,,{12}1/2-6[12:1],,,A2,
,Ch[24:5],{24},,,,,{8}6bx/8-5[12:1],4,1bx/8-4[12:1],2,7bx/8,
,C,,5h[8:1]/4h[8:1],,3-8[12:1]/6-1[12:1],,A6/A3,
,C,,3bx/1-4[12:1],5,8bx/1-6[12:1],7,2bx/1,
,C,,2h[8:1]/7h[8:1],,1s5b[12:1]`8z4[12:1],,A8h[24:0]/A1h[24:0]/E1h[24:0],
{24},,,,,,,,{12}5h[8:1]/7V58[8:1],,,A7/3V15[8:1],,,{6}A3,
{12},6h[8:1]/3h[8:1],,,2<8[12:1],,,2-6[12:1],,,{6}E8/2>5[12:1],
{12},,,,3h[8:1]/5-7[12:1],,,2h[8:1]/5-3b[12:1],,,{6}A5/8z4[12:1],
{12},8h/1h,,,6h[8:1]/3h[8:1],,,4/5,,,{6}5w1[2.8##0.16],
{24}5h[12:11],,,,,,,C,,,,,,,,,,,,Ch[8:1],,,,,,,,,,,,5b,
,,,,,,,,,,,,,,{12}C,
{24},1xw5[12:1],,,2bh,,,A1f/D1f/D2f,,,,,,6-8[12:1]/3-1[12:1],,,C,,,A6/A3,,,,,,8bxh[4:3],
,,C,,,1,,,{12}2>5[12:1],{24},3,,,{3}2h,
{4}4-1[12:1]/5-8[12:1],5/4,B1h[24:31]/B2h[24:31],{8}8-6[0.48##0.16],{24}C,,,
{4}8,{8}6h,C,4h,C,{24},,,,{12}3,
4qq4b[0.48##0.4]*pp4b[0.48##0.4],5,,{4}D5/D4/A4f,{8},,6-8[12:1]/3-1[12:1],C,
A6/A3,7x/2x,6h[12:1],5h[12:1],4h[12:1],3h[12:1],{4}2h,
{24}3,4,3,4,3,4,{4}2bx,{24}5,6,5,6,5,7bx,6x,5x>1<7[24:17],{4},,,{16},,{24},{4}C,
{24},,,,,,7bx,6x,5x,1bx,2x,3x,4x,5x,6x,7xh,{12}8xh,A1,{24},,,2x-7[12:1]/6x-3[12:1],
,,,,,2b/6b,,,,,,,{12}3/7,6/2,{24},1h[6:1]/5h[6:1],,,,,,,,C,
,,,2bx,3x,4x,8bx,7x,6x,5x,4x,3x,2xh,1xh,,C,,,,,,C,
,,,,,2b,3,4,5,6,7x/2bx,3,4,5,6/2,5,4,3,{4}2h[24:5],
{24},,,,,5b,6x,7x,1x,2x,3x,5x,6x,7x,1x,2x,3x,4bh[4:1],,,,,,,,,,,,7b,
6x,5x,4x,3x,2x,1x,8bx/4x,3x,2x,1x,8x,7x,{4}6bh[6:1],
{24},6,7,6,5,6bh[12:1],7,,,,,3,2,3,4,3bh[8:9],{12}2<4[6:5],,,A2,
,,,,,,,,,,,,,,{6}B2/B6/Ch[2:3],
,,,,,,,,,,,B7/B3/Ch[2:3],
,,,,,A6,
{12},7-1[12:1],,,{3}7bh,
{24},,,{8}1/8-5[3:4],,1,,1,,1,
,2,,2,,2h[16:1],{16},,,5<1[0.48##2.8],
,,{8}C,,C,,C,,C,
,C,,C,,C,{24},,,B6,E5,B3,
,,{12}6bh[24:25]/2bh[24:13],{1},{16},,,{48},{8}C,
{24},,,,,7h[4:1]/2h[6:1],{4},{16},{64},,7x,
6x,{8}5bx-7-1-3-5b[24:83]*<7>1[4:7],{1},,,{4},,,{24},E4/E6h[2:3],
,,,,,3-8[12:1],,,,,,A3,,,,,,8-6[12:1],,,,,,A8,
,,,,,A6,,,{12}A7,{24},A8,,,,,,5-8[12:1]/1-4[12:1],,,,,,A5/A1,
,,,,,8-3[12:1]/4-7[12:1],,,,,,A4/A8,,,A7,A6,A5,4x,3x,2h[6:1],,,,C,
,,,,,3x-7[12:1],,,,,,3bh,,,{12}C,5xw1[12:1],{24},{8}4bh,
{24}D6f/D5f/A5fh[24:0],,,,,,,7-5[12:1]/2-4[12:1],,,,,,7b/2b,,,,,,8bxh[8:1]/4bh[8:1],,,,C,
,1,,,2>5[12:1],,,6b-2[12:1],,,{12}2xh,{24},6bh,,,,,{4}4-1[12:1]/5-8[12:1],
5/4,Ch[4:1],{8}8-6[0.48##0.16],C,{4}8/4-8[12:1],
{8}4-2[12:1]/5-7[12:1],B8,4-1[0.48##0.16]/5-8[0.48##0.16],{24}A6/A3,,,{6}A5/A4,{24}7/2,,{12}1/8pp8b[0.48##0.4]*qq8b[0.48##0.4],{24}C,,,,{2}A8f,
{8}6h[8:1],3x-7[12:1],B6,3bh[12:7],
{24},,,,,,,,,,,Cf,,,,,,,{8}5-1[12:1]/4-8[12:1],3bx/6bx,
{4}5/4,{8}2-5[8:1]/7-4[8:1],4<4[24:23]/5>5[24:23],{2}2h/7h,
{24},,,,,,,,,,,,,,,,7/3-5[12:1],,,A2/A6,,,{12}3/7-1[12:1],
{24},C,,,7/5-1[12:1],,,B6,,,{12}5/4x-8[12:1],{24},A3,,,4/3x-7[12:1],,,A2,,,{12}3/2x-6[12:1],
{24},A1,,,2/1x-5[12:1],,,A8,,,{12}1x/8x-4[12:1],{24},A7,,,8/1-5[12:1],,,A2,,,{12}1/7<4[12:1],
{24},E4,,,7/3>8[12:1],,,B4,,,{12}3/5-7[12:1],{24},E1,,,5/8-2[12:1],,,E7,,,{12}8/7-3[12:1],
,,{6}7h[12:5],{24},,,,,,,,3/7-1[12:1],,,A6/A2,,,{12}7/3-5[12:1],
{24},C,,,3/1-5[12:1],,,B2,,,{12}1/8x-4[12:1],{24},A7,,,8/7x-3[12:1],,,A6,,,{12}7/6x-2[12:1],
{24},A5,,,6/5x-1[12:1],,,A4,,,{12}5x/4x-8[12:1],{24},A3,,,4/5-1[12:1],,,A6,,,{12}5/3>8[12:1],
{24},E8,,,3/7<4[12:1],,,B8,,,{12}7/1-3[12:1],{24},E5,,,1/4-6[12:1],,,E3,,,{12}4/3-7[12:1],
,,{6}A3,{12},C,{24},,,,6b-1[12:1]`2-5b[12:1],,,7b`3,,,{12}A2/A6h[24:0],
E
&lv_6=1
&des_6=
&inote_6=
(125){4},{1},,,,,,,,,,,,,,,,,,,,,,{4},{2},
{1},{4},,,{16},,,{48},{24},
,,,,,,,,,,,,,,,{8},{24},,,,{12},
,,{1},,,,,,,,,,,,,,,,,,{4},{16},,,{48},{8},
{1},,,,,,,,,,,{4},,{24},,
{1},,{4},{16},,{24},{4},
{12},,,,,,{24},,,,,,,,,{8},
E
