&title=SAVE The World
&artist=Toby Fox
&first=0
&des=-HTT-
&lv_1=14
&lv_5=14
&inote_1=
&inote_5=(180)
{8}2/7v5[8:1],2,2,2,3/6v8[8:1],3,3,3,1/7,2,34,5,6v1[8:1]/2^5[8:1],7,26,,
7/2v4[8:1],7,7,7,6/3v1[8:1],
{16}6,,7,6,5,,8/2,,7,,65,,4,,3/7,,3,2,1-3[8:1]/5,,,,
{16}1b-5[8:1]/7,,7,7,1^3[12:1],,6,,1-4[8:1]*v6[8:1],,,,1,,,,8b-4[8:1]/2,,2,2,8^6[12:1],,3,,8-5[8:1]*v3[8:1],,,,8,,,,
{16}1,2,3,4,51,6,7,8,16,5,4,3,2,15,8,7,6-1[8:1]/2v5[8:1],,,,,,,,8^5[8:1]/4^1[8:1],,,,,,,,
{8}2/7v5[8:1],2,2,2,3/6v8[8:1],3,3,3,1/7,2,34,5,6v1[8:1]/2^5[8:1],7,26,,
7/2v4[8:1],7,7,7,6/3v1[8:1],
{16}6,,7,6,5,,8/2,,7,,65,,4,,3/7,,3,2,1-3[8:1]/5,,,,
{16}1b-5[8:1]/7,,7,7,1^3[12:1],,6,,1-4[8:1]*v6[8:1],,,,1,,,,8b-4[8:1]/2,,2,2,8^6[12:1],,3,,8-5[8:1]*v3[8:1],,,,8,,,,
{16}1,2,3,4,51,6,7,8,16,5,4,3,2,15,8,7,6-1[8:1]/2v5[8:1],,,,6^3[8:1]/2^7[8:1],,,,2b/6b,,,,,,,,2h[8:1]/8^5[8:1],,1-3-8[4:1],,8,,1,,,,7-3[8:1],,1,,7-5[8:1],,,,7,,2^4[8:1],,8,,,,1,,8q5[8:1]*p4[8:1],,7,,8b,,,,7-4[8:1]/3h[4:1],,,,7,,3^1[8:1],,,,3/5h[8:1],,,,25,36,4h[4:1]/7p3[8:1],,,,7^1[8:1],,,,2^5[8:1],,,,2p6[8:1],,7,7,2pp1[16:5],,8,,2,,,,7^4[8:1],,,,7q3[8:1],,2,2,7qq8[16:5],,1,,7,,,,2^5[8:1],,,,62,7,8,1,2,3,4,5,63,2,1,8,7,6,5,4,3-8[8:1]/7-4[8:1],,,,,,,,1^4[8:1]/5^8[8:1],,,,,,,,
7h[8:1]/1^4[8:1],,8-6-1[4:1],,1,,8,,,,2-6[8:1],,8,,2-4[8:1],,,,2,,7^5[8:1],,1,,,,8,,1p4[8:1]*q5[8:1],,2,,1b,,,,2-5[8:1]/6h[4:1],,,,2,,6^8[8:1],,,,6/4h[8:1],,,,74,63,5h[4:1]/2q6[8:1],,,,2^8[8:1],,,,7^4[8:1],,,,7q3[8:1],,2,2,7qq8[16:5],,1,,7,,,,2^5[8:1],,,,2p6[8:1],,7,7,2pp1[16:5],,8,,2,,,,7^4[8:1],,,,37,2,1,8,7,6,5,4,36,7,8,1,2,3,4,5,6-1[8:1]/2-5[8:1],,,,2-7[8:1]/6-3[8:1],,,,2b/6b>6[8:33],,,,,,,,7,,,,7,,,,6,,,,5,,,,5,,4,,,,5,,,,6,5,4,,,,3,,,,2,,,,2,,3,,,,1,,,,2,3,4,,,,2q6[8:1],,,,2,,,,
7b/3b<3[8:29],,,,1,,,,1,,,,2,,,,2,,3,,,,3,,,,2,3
,4,,,,4,,,,4,,,,5,,6,,,,7,,,,7,6,5,,,,7p3[8:1],,,,7,,,,
2b/7b>7[8:30],,,,6,,,,6,,,,7,,,,7,,8,,,,,,8,,,,7h[4:1],,,,1h[2:1],,,,,,,,8h[2:1],,,,,,,,3h[2:1],,,,,,,,8,,,,,,,,2qq5[8:12],,,,7,,,,6,,,,7,,,,6,,5,,,,6,,,,6,7,8h[8:7],,,,2,,,,6,,,,3,,5,,,,4>5[8:5]/5<4[8:5],,,,,,,,,,,,,,,,,,
3/8^3[8:1],,,,8^5[8:1]/5,,,,8-4[8:1]/4,,,,8/4,,,,26,,4w8[8:1]/8,,,,4,,,,3,2,1-5[8:1],,,,1/7-1[8:1]*-5[8:1],,,,7-3[8:1],,,,2,,1^4[8:1],,,,1/8v5[8:1],,,,4/8,3,2z6[4:1],,,,26,,,,8,,,,
6/1^6[8:1],,,,1^4[8:1]/4,,,,1-5[8:1]/5,,,,1/5,,,,73,,1/5w1[8:1],,,,5,,,,6,7,8-4[8:1],,,,8/2-8[8:1]*-4[8:1],,,,2-6[8:1],,,,2,,7-1[8:1],,,,2-6[8:1]/7,,,,2-8[8:1]/7-5[8:1],,8,,7-3[8:1],,,,1/7,,2,,1,,
2/5^2[8:1],,,,5^8[8:1]/8,,,,5/1-5[8:1],,,,5/1,,,,37,,5/1-7-5[8:1]*v4[8:1],,,,1,,,,2,3,4-8[8:1],,,,4/6-4[8:1]*-8[8:1],,,,6-2[8:1],,,,3,,4^1[8:1],,,,4/5v8[8:1],,,,1/5,2,3s7[4:1],,,,37,,,,5,,,,
7/4^7[8:1],,,,4^1[8:1]/1,,,,4-8[8:1]/8,,,,4/8,,,,62,,4/8-2-4[8:1]*v5[8:1],,,,8,,,,7,6,5-7[8:1],,,,5-1[8:1]/3^8[8:1],,,,3-7[8:1],,,,3,,6-4[8:1],,,,3-7[8:1]/6,,,,3-5[8:1]/6-8[8:1],,5,,6-2[8:1],,,,4/6,,3,,1,,
1>4[8:1]/5<8[8:1],,,,1p5[8:1]/5p1[8:1],,,,1>4[8:1]/5<8[8:1],,,,15,,,,37,,1-5[8:1]/5h[16:2],,,,1,,,,47,36,2^8[8:1]/5h[4:1],,,,2-4[8:1],,,,2/7-1[8:1],,,,7qq6[4:1],,2-8[8:1],,7,,2-4[8:1],,,,6,6,2q6[8:1],,,,2/8w4[8:1],,,,8b,,,,
8<5[8:1]/4>1[8:1],,,,8q4[8:1]/4q8[8:1],,,,8<5[8:1]/4>1[8:1],,,,84,,,,62,,8-4[8:1]/4h[16:2],,,,8,,,,52,63,7^1[8:1]/4h[4:1],,,,7-5[8:1],,,,7/2-8[8:1],,,,2pp3[4:1],,7-1[8:1],,2,,7-5[8:1],,,,7-3[8:1]/2-8[8:1],,1,,2/7-5-3[6:1],,,,1-5[8:1],,2,,1,,
8b-3[8:1],,,,8-5[8:1]/6,,4,,2/8v3[8:1]*-2[8:1],,,,
8^5[8:1],,,,8^3[8:1]/2,,,,8^5[8:1]*p4[8:1],,6,,8^3[8:1],,,,8/4^7[8:1],,,,4^1[8:1]/2,,,,4-8[8:1],,6,,4/7-3[8:1],,,,7-5[8:1]/1-5[8:1],,,,1-3[8:1]/7,,,,1-7[8:1]/6-4[8:1],,,,6/1w5[8:1],,,,1,,,,
1b-6[8:1],,,,1-4[8:1]/3,,5,,7/1v6[8:1]*-7[8:1],,,,
1^4[8:1],,,,1^6[8:1]/7,,,,1^4[8:1]*q5[8:1],,3,,1^6[8:1],,,,1/5^2[8:1],,,,5^8[8:1]/7,,,,5-1[8:1],,3,,5/2-6[8:1],,,,2-4[8:1]/8-4[8:1],,,,8-6[8:1]/2,,,,8-2[8:1]/3-5[8:1],,,,3/8^5[8:1],,,,8^3[8:1]/4,,,,4p2[8:14]/8p6[8:14],,,,,,,,,,,,,,,,,,,,,,,,,,,,,,,,,,,,,,,,,,,,,,,,,,,,,,,,,,,,,,,,,,,,,,,,,,,,,,,,,,,,,,,,,,,,,,,,,,,,,,,,,,,,,,,,,,,,,,,,,,,,,,,,,,,,,,,,,,,,,,,,,,,,,,,,,,,,,,,,,,,,,,,,,,,,,,,,,,,,,,,,,,,,,,,,,,,,,,,,,,,,,,,,,,,,,,,,,,,,,,,,,,,,,,,,,,,,,,,,,,,,,,,,,,,,,,,,,,,,,,,,,,,,,,,,,,,,,,,,,,,,,,,,,,,,,,,,,,,,,,,,,,,,,,,,,,,,,,,,,,,,,,,,,,,,,,,,,,,,,,,,,,,,,,,,,,,,,,,,,,,,,,,,,,,,,,,,,,,,,,,,,,,,,,,,,,,,,,,,,,,,,,,,,,,,,,,,,,,,,,,,,,,,,,,,,,,,,,,,,,,,,,,,,,,,,,,,,,,,,,,,,,,,,,,,,,,,,,,,,,,,,,,,,,,,,,,,,,,,,,,,,,,,,,,,,,,,,,,,,,,,,,,,,,,,,,,,,,,,,,,,,,,,,,,,,,,,,,,,,,,,,,,,,,,,,,,,,,,,,,,,,,,,,,,,,,,,,,,,,,,,,,,,,,,,,,,,,,,,,,,,,,,,,,,
