&title=Ue
&artist=Redox
&first=0
&des=Redox vs. くろおおかみ
&clock_=4
&lv_5=13+
&lv_6=13+
&inote_5=(165){1},{64},
{8}45,,3,5,4,7,,5,4,5,1,5,,13,2,3,68,7,6,5,,36,4,36,5,36,5,4,45,36,27,18,
{8}5/4<8[2:1],,2,3,4,3,2,1,8-5[12:1],1-4[12:1],8,1,,56,7,7,34,2,2,45,,
{8}5>1[8:3],7,6,5,6,7,8,81,27,36,45,
{8}7-4[12:1],2,7,2,,4-1[12:1]b/5-8[12:7],3,45,,5-8[12:1],{16}5,4,5,,,,
{8}2-5[12:1],7,2,7-4[12:1],2,7,2,,1-5[12:1]b/8-4[12:7],2,18,,8-4[12:1],{16}8,1,8,,,,
{8}1-7[12:1],5,1-5[8:1],5-1[8:1],1-3[8:1],,,,
{8}2-6[12:1]/8-4[12:1],37,28,,3,{16}5,4,5,,
{8},45,36,27,1-4[4:3]/8-5[4:3],,,,,,,,,,,,,
{8}4-8[12:1],7,4,
{8}4-6[8:1],6-8[8:1],4-2[8:1],2-8[8:1],4-6[8:1],6-8[8:1],4-2[8:1],2-8[8:1],
{8}4-6[8:1],6-8[8:1],4-2[8:1],2-8[8:1],4-8[8:1],6,4,,,
{8}34,,8,65,1,2,{48}E5,B4/B5,C,B8/B1,E1,,
{8},,1-6[12:1]/8-6[12:1],27,8-3[12:1]/1-3[12:1],,8b/1b,,
{8}5-3[8:1],3-1[8:1],5-7[8:1],7-1[8:1],5-3[8:1],3-1[8:1],5-7[8:1],7-1[8:1],
{8}5-3[8:1],3-1[8:1],5,7,5-3>2[8:1],3,5-7>8[8:1],,5,,,
{8}27,36,4-1[8:1]/5-8[8:1],,{16}E5,C,
{8}E1,,1-4[12:1]/2-5[12:1],,1-6[12:1]/2-7[12:1],
,1b/2b,,
{8}1>3[8:1],3<5[8:1],1<7[8:1],7<5[8:1],1>3[8:1],3<5[8:1],1<7[8:1],7<5[8:1],
{8}1>3[8:1],3<5[8:1],1<7[8:1],7<5[8:1],1-5[12:1],3,1,,,
{8}48,,51,2-7[8:1]/6-3[8:1],7-2[8:1]/3-6[8:1],B2/B6,B3/B7,,,
{8}8-5[12:1]/7<4[12:1],,8>3[12:1]/7-2[12:1],,7b/8b,,
{8}8<6[8:1],6-4[8:1],8>2[8:1]/E8,2-4[8:1],8<6[8:1]/E1,6-4[8:1],8>2[8:1]/E8,2-4[8:1],
{8}8<6-4[4:1]/E1,6-4[8:1],8>2-4[4:1]/E8,2-4[8:1],8-5[12:1]*<6[12:1],,8-3[12:1]*>2[12:1],,,,,
{8}28,16,4z8[8:1]/5s1[8:1],,A4/A5,,1-6[8:1],8-3[8:1],1-4[8:1],8-5[8:1],A1,A8,,
{8}17,2,37,6,,5,3,4h[2:1],,5,{16}6,7,8h[8:3],,,,
{8}1,2,3,4/5-7[8:1],6,4-2[12:1]/5,3,4/5-1[12:1],6,4-8[12:1]/5,3,4/5v2[12:1],6-3[12:1],5,6,,
{8}46,3,2,18,7,6,4/5v7[8:1],,4v2[8:1]/5,,4/6v8[8:1],,6/3v1[8:1],,3/7v5[8:1],,7,2,3,4-8[8:1]/6,8-4[8:1]/2h[8:3],,,,2x,1x-5[8:1],,,,,
{16}7,7,7,,{8}26,3-1[12:1]/4,4-6[12:1]/3,3-7[12:1],4-8[12:1],3b,4b,,
{8}1/2,8,7,4/6,3,2,18,,
{8}1-6[12:1],2,3,4-1[12:1],5,6,7-4[12:1],8,1,2-7[12:1],3,4,5-2[12:1]/6-2[12:1],47,56,,
{8}3,48,48,4/8-3[12:1],2,4/8-5[12:1],6,4/8-2[12:1],2,4/8-6[12:1],6,4/8-4[12:1],2,4/8,7-2[12:1],,
{8}3-8[12:1],4,6-1[12:1],5,4-1[12:1],5,7-5[12:1],8,1,2,3,
{8}1>4[12:1]/8<5[12:1],,8-4[12:1]/1-5[12:1],,81,,{32}8bx/1bx,27,36,45,,,,,
{8}13,2,3,4V28[8:1],,4/6-2[8:1],,5,4,3,81,78,,
{8}8>3[12:1],7,6,5<8[12:1],4,3,2>5[12:1],1,8,7,6,5-2[12:1],3-7[12:1],5,3,,
{8}6,15,15,5/1-6[12:1],7,5/1-4[12:1],3,5/1-7[12:1],7,5/1-3[12:1],3,5/1-5[12:1],7,1/5,3,,
{8}8,7,6,5-7[8:1],1,5-1[8:1]b,1-5[8:1]b,5-3[8:1],,,,,,
{8}45,,45,,45,,4qq4[16:3]*pp4[16:3]/5,,,,,,45,,5qq5[16:3]*pp5[16:3],,,,,,
{8}45,,4-6[16:1]/5<8[8:1],,,,4>1[8:1]/5-3[16:1],,,,7-4[16:1],,3-8[16:1],,6-1[16:1],,,,
{8}1>3[8:1]b/8-5[8:3],,1-6[8:1]/8,,1-4[12:1]*>3[12:1],,1,,
{8}8<6[8:1]b/1-4[8:3],,8-3[8:1]/1,,8-5[12:1]*<6[12:1],,8-3[12:1]*>2[12:1],,,,,
{8}2h[8:1]/7h[8:1],,27,,{32}6,5,4,3,2,1,8,7,{8}3-8[8:1],3-7[8:1],3>5[4:1],3,,4b,,
{32}1<7[16:1],2,3,,{8}5-1[16:1],1,5,{32}2-7[16:1],3,4,,{8}6>4[16:1],2,6,
{32}1-7[16:1],2,3,,{8}6-2[16:1],1,6,{32}3,4,5,6,7,8,1,2,3b-8[16:1],,,,,,,,
{8}3,5-1[16:1],,5,2-4[8:1],2-6[8:1],,,,8-3[8:1],5,8,4w8b[16:1],,4b,,
{32}8-2[16:1],7,6,,{8}4-8[16:1],8,4,{32}7-3[16:1],6,5,,{8}2-5[16:1],7,2,
{32}8v3[16:1],7,6,,{8}4-6[16:1],8,4,{32}8,1,2,3,4,5,6,7,8b-5[16:1],,,,,,,,
{8}4b-1[16:1],,,7,6,5,3-7[16:1],5,4-1[16:1]/3-1[16:1],,3-6[16:1]/4-6[16:1],,4w8[16:1]/3,,4b,,
{32}3-8[16:1],4,5,,{8}7-5[16:1],3,7,{32}3<5[16:1],2,1,,{8}7v2[16:1],3,7,
{32}4-7[16:1],,,,8,7,6,,4-8[16:1],,,,8,1,2,,4-1[16:1],,,,7,6,5,,4b,,,,,,,,
{8}7,7-4[8:1],,7,1>3[8:1],1-5[8:1],,,,8-3[16:1],6,8,5w1b[16:1],,5b,,
{32}7-1[16:1],6,5,,{8}3v6[16:1],7,3,{32}7-4[16:1],8,1,,{8}3-1[16:1],7,3,
{32}6-3[16:1],,,,2,3,4,,6-2[16:1],,,,2,1,8,,6-1[16:1],,,,3,4,5,,6bw2[16:1],,,,,,,,
{8}6b,,,18,27,3bh[8:1]/6bh[8:1],,{32}4b/5b,3b/6b,2b/7b,1b/8b,
{8},27,,6-2[8:1],4V28[8:1],,,,E
&inote_6=(165){1},{64},
{8}3/6,,5/4h[8:1],,4/5h[8:1],,4/5,{16}3,4,3,,{8}6h[8:3],5,5,3h[8:3],4,5,6,6h[2:1],5,4,3,,{16}3,,2,,1,8,1,,2,,3,4,3,,5,,6,,7,,8,,1bx^3[8:1],,,,{8}1/7h[8:1],,7h[8:1]/4,,7/4,{16}3,2,1,,{8}7h[8:3],2,1,2h[8:3],8,7,8,7h[2:1],1,2,3,4,{16}6,,6,,3,2,1,,8,,7,6,5,,4x-1[8:1],,4,,4bx,,
{8},8^5[8:1],8,4^1[8:1],4,,5^8[4:1],6,5,,1^4[4:1],2,1,,7,7-4[8:1],4-7-3[8:2],7,3-7[8:1],,,,1-5[8:1],1,,,8-6[8:1]/2-4[8:1],8/2,,,1s5[4:1],8/2,,7p2q7[2:1],7,1,1h[4:1],,,1-5[8:1],1,{16},,,,8,7,6,,{8},3/6,2/7,1/8,8b/1b,,5/1,5s1b[4:1]/1,,1w5[2:1]/5,,,,,,,,
1/2,3/8,4/7,6b-1[8:1]/5,7,6/5,4,6-1[8:1]/5,7,6/5,4b-1[8:1],,4/5,5,3/6,4-1[8:1]/5-8[8:1],,{16}5b/4b,Cf/B7/B6/B3/B2,{8},,2-7[8:1]*pp4[8:1],,2,,6x/3x,7x-4[8:1],3-8[8:1],7,3,7-3[8:1],7x,1b-5[8:1]/7xb,,{16}1xb,Cf,{8},6x^1[8:1]/4x,6/4qq2[8:1],,,,B8/B7,B4/B3,6x^1[8:1],,4qq2[8:1]/6,4,4,B8/B7,B4/B3,6x<2[8:1]/2xv4[8:1],,6b/2b,,,8/4,7/3,6/2,,5x^8^5[4:1]/1x^4^1[4:1],,1/5,,,8x-3[8:1]/4x-7[8:1],,,,3x-1[8:1],2x,4-8[8:1],5,3-1[8:1],2,4-8[8:1],5b,,3-1[8:1],2,4-8[8:1],5,3-1[8:1],2b,,,7x,7x^4[4:1],7x,4^1[4:1],,1^6[4:1],,6^3[4:1],,3^8[4:1],,8bw4[8:1]b,,,,3x-7[8:1],6,3-8-4[4:1],6,3,6,6,6^8[8:1],,6,2x^4[8:1],1x^6[8:1],2,1,5xv3>7[4:1],,5bx,,,5,5,5-1[8:1],,5b<1[2:1]/4b,,5bx,4,4,3,3,2-4[8:1],,
7h[8:1],,7h[8:1]/1-5[8:1],,7h[8:1],,7h[8:1]/2-4[8:1],,7h[8:1],,{16}1-3[8:1],6x,1x,,A1,,{8}7^5[8:1],7,3^1[8:1],3,8^6[8:1],8,4^2[8:1],4,5<3[8:3],5,5,,4-8[8:1]b,4,,,6x,6-1[8:1]/3,6,6/3-7[8:1],3,8/3,8x-4[8:1],,8x^5[8:1],1,8-3[8:1],1,8-4[8:1]/1-5[8:1],1x,8xb/1xb,,6,7,8,1,2,3,4,5,6-2[8:1]/4-8[8:1],6h[8:1]/4h[8:1],,,,{16},,1,1,1,,{8}6-1[8:1],2-5[8:1],6<6[2:1],2qq5[60:19],6,2,,,B5,B6,B7,B8,B1,B2,B3,,3>7[4:1],3,6<2[4:1],6,3>7[4:1],3,6<2[4:1],6,3>6<3[2:1],3,,,,,,,3/6,2-4[8:1]/7,1,2/8-4[8:1],7,1/8,2-5[8:1],,2/7-4[8:1],8x,7/1-5[8:1],2x,8-4[8:1]/1,7x,1/8,,1-5[8:1],1x,8-4[8:1],8x,7-3[8:1],7x,6-2[8:1],6x,5-1[8:1],5x,5,,,{32}8bx/1xb,7x,6x,5x,,,,,1bx/8bx,2x,3x,4x,,,,,8bx/1bx,7x,6x,5x,,,,,{8}6hx[8:5],5,4,3,,2xh[4:3],3,4,5,6,7,8,,7^4[8:1],8,1,2^7[8:1],3,4,5^2[8:1],6,7,8^5[8:1],1,2,3^8b[8:1],4,5b/3b,,1hx[8:1],8bh[8:1],3h[8:1],4h[8:1],3h[8:1],4h[8:1],2hx[4:1],,6h[8:1],5h[8:1],6h[8:1],5h[8:1],7hx[8:1],8h[8:1],1bh,,8^5[8:1],1,2,3,4^1[8:1],5,6,7,8,1,2b,8x-4[8:1],,8b-5[8:1]*-6[8:1],,8b-3[8:1]*-2[8:1],,8b,,5pp5qq5[2:1]/4h[8:1],,5/4h[8:1],,2h[8:1],,1h[8:1],,5pp5qq5[2:1]/3h[8:1],,5/3h[8:1],,2h[8:1],,1,,2-7[8:1]*pp4[8:1],,2,,6x/3x,7x-4[8:1],3-8[8:1],7,,7x,7-3[8:1],6x,1b-5[8:1]/7xb,,1xb,,6v8[8:1]/4-1[8:1],,6b/4b,,5-8[8:1]/4v1[8:1],,5b/4b,,5p8[8:1]/3-1[8:1],,5b/3b,,4^1[8:1]/5^8[8:1],,4b/5b,,B7/B8/B1/B2/B3/B4/D5,,,Ch[2:1],,,,,{16}7h[8:1]/8h[8:1],,,6h[8:1]/1h[8:1],,,5/2,,{8}4bx/3bx,2/1,7bx/8bx,5-2[8:1]/6,
5b/6b-1[8:1],,,5x-2[8:1],6x-1[8:1],5,6,5b-2[8:1],,6-1[8:1]/5,7,6/5-2[8:1],4-8[8:1],5,4bx,,7x/3x,7x-2[8:1],2pp4[8:1],7,3,3,3,4,5,6,7,8,8-4[8:1]/2-6[8:1],,{16}8b/2b,Cf/B8/B4/B2/B6,{8},1x<3[8:3],7<1[8:3],5q1[4:1]b,5,,C,,8x<4[4:1],,4>8[4:1],1,8p4[4:1]b,,4v2<6[8:3]b,3bx,,3xb,,,B8/B7/B6/B5/B4/B3/B2/B1,,,,5b-8[8:1]/4b-1[8:1],,,,,8b^5[8:1]/1b^4[8:1],,8b/1b,,3xb-8[8:1]/4x,2,3/4,5,3-8[8:1]/4,2,3/4,5b-8[8:1],,5/4,4,6/3,5-8[8:1]/4-1[8:1],,{16}4b/5b,Cf/B2/B3/B6/B7,,,{8},7q3[4:1],,7/3-8-2[4:1],4,4,4,4^1[8:1],,5/4,5^8-4[8:3],,5xb/1xb-5[8:1],,{16}1xb,Cf,,,{8}1x-3[8:1],8,1-5[8:1],8,1-6[8:1],8,1-4[8:1],8,1-5[8:1],8,1-6[8:1],8,1,8,1b^2v4[8:1]b*^6[8:1]b,,1bx,,,2/7,3/6,4/5,,4-8[8:1],5-1[8:1],4-2[8:1],5-7[8:1],4-8-6[4:1]b*-8-2[4:1]b,5,4,,,
3/5,,4,4,5,5,4/5,{16}3,4,3,,{8}5,6,7,8p1[4:1],2,3,4,4h[2:1],8,7,6,5,{16}3,,2,,1,8,1,,2,,3,4,3,,2,,1,,8,,7,,6bx-2<4[8:3],,,,{8}3h[8:1],,3h[8:1],,3,{16}2,3,4,,{8}6h[8:3],5,5,3h[8:3],4,4,5,6h[2:1],5,4,3,2,{16}3,,3,,5,4,5,,3,,5,4,5,,6x-2[8:1]b/2xh[8:1],,,,6x/2x,,
