&title=CROSS GAME (TVサイズ)
&artist=アリス九號
&first=0
&des=伍舟之雨
&lv_5=13
&inote_5=(188){4},,,,,,{8}1/8,
2/7,{4}3>1[12:1]/6<8[12:1],
{32}3b/6b,E3/E7,E2/E8,E1,{8},{4}4x,,4,
,4,,4,
1b/7bh[8:7],{8}2,2,3,3,4,4,
5,5,6,6,7,7>6[8:3],1,3bx,
{4},1q5[8:1],7,8p4[8:1],
2,1x/5x,{8}2,2<7V53[8:3],8,6bx,
{4},8q4[8:1],3,1p5[8:1],
6,4x/8x,{8}1x/6x,7<3[16:3],8,1bxh[4:1],
{4},1,{8}8x/3x,2>6[16:3],1,8bxh[4:1],
{4},8-5[8:1],3-8[8:1],6-3[8:1],
1-6[8:1],8>5[4:1],5<3[8:3],{8}1,1,
{4},E5f,{8}2,2<3[8:3],8,6bx,
{4},8p4[8:1],2,1q5[8:1],
7,8x/4x,{8}7,7>2V46[8:3],1,3bx,
{4},1p5[8:1],6,8q4[8:1],
3,5x/1x,{8}3x/7x-3[8:1],7,{4}8,
{2}1-4[8:1]/4-7[8:1],8-5[8:1]/5-2[8:1],
{4}1>5[4:1],5<1[4:1],1,5,
2-8[8:1],6-8[8:1],3-7[8:1],{8}5x,5x<4[8:5]*p4[8:5],
{1},{8}3/5,
5/3,,4/6,{4}6/4,{8}5/2,5/2,
,4/7,{4}7/4,3/6,1/8,
{8}8/7,8/7h[8:3],{32},,,E7,,E6,,E5,{4},{8}2/4,4/2h[8:3],
{32},,,E3,,E4,,E5,,,,,,,,1<6[8:1]*>4[8:1],,,,,,,,1,{4},5xpp8[4:3],
3,3,3,
3,{8}3,1x,{4}3,3/8,
3/7qq6[8:3],3,3,{8}3,4x,
{4}3,3,3,3/5,
6/4>7[8:3],6,6,{8}6,8x,
{4}6,{8}6,5x,6,4x,6,5x,
{4}6h[4:1],{8}4,3h[4:1],5,4,{4}5b/3bq5[2:1],
1,7,{8}8,8-4b[8:1],,2x>5[8:1],
,7,{4}7>2[8:1],{8}4,5-1[8:1],,8x<5[8:1],
,3,{4}3>8[8:1],{8}4,5,6,7x-3[8:1],
,1,{4}1-5[8:1],{8}6,6x-1[8:1]*-3[8:1],,,,2/8,
{4}2/8,{8}1,1-5b[8:1],5,7x<4[8:1],
,2,{4}2<7[8:1],{8}5,4-8[8:1],,1x>4[8:1],
,6,{4}6<1[8:1],{8}5,4,3,2x-6[8:1],
,1/2,{4}1,{8}4/6,3/7,2/8,1pp4[8:3]*qq6[8:3],
{4},,,{8}4,5/3h[4:1],
,7,3/5,6/2h[4:1],,4,3/5,4/6h[4:1],
,7>2[8:1],,6/7,,5,3,4/2-6[8:1],
,6,{4}5-8[8:1],4-2[8:1],{8}7,7h[4:1],
,1,2/6,3/5,{16}6,4,5,3,{12}4x,2x,6x,
{4}4xqq2[6:1],5pp7[6:1],,{8}2,6,
8h[8:3],{4},{8}1,{2}1>3[8:1]*<6[8:1],
{8},2/1,{4}3/8,{8}7/8,1/6,,3/5,
{2}8/Cf,{8}2-8[8:1],8-4[8:1],5,{24}E6f,E7,A7,
{4},8<5[8:1]/4>1[8:1],4/8,1/7-3[8:1],
7/1<6[8:1],1/4,{8}5-7[8:1],7-3[8:1],2,{24}E2f,E1,A8,
{4},8-3[8:1]/4-7[8:1],4/8,8/2-6[8:1],
2/8>3[8:1],8/5,{8}4>7[4:1],7,6,5-8[8:1],
,1,{4}1-6[8:1]*-4[8:1],1,{8}7/3,8/2h[8:3],
,8,{4}1<6[4:1],6>3[4:1],3,
2-6[8:1],2/5-1b[8:1],5/3V17[4:1],{8}8,8xh[8:3],
{4},6b,{8}4-6[8:1],6-2[8:1],7,{24}E8f,E1,A1,
{4},4>1[8:1]/8p4[8:1],4/8,5/8q4[8:1],
8/5v2[8:1],3x/5,{8}3-8[8:1],8-4[8:1],7,{24}E7f,E6,A5,
{4},2q6[8:1]/6<1[8:1],2/6,8/5p1[8:1],
5/8v3[8:1],8/2,{8}4-7[8:1]/3-7[8:1],2,{4}4/3,
2x/1x-4[8:1],8/1-6[8:1],2/1-4[8:1],1/7,
8-4[8:1]/7-5[8:1],8/7,1/2-5[4:1],2/5q1[4:1],
1>5[4:1],5<1[4:1],1V35[4:1],{8}5V37>1b[2:1],6xh[8:5],
{4},,,{8}6/2,7/8,
1-5[8:1],5,1,7-3[8:1],3,7,2b,2/4,
5/7,4/6,3/5,Cf/4bxz8[8:19]*s8[8:19],
E
