&title=あくあ色ぱれっと
&artist=湊あくあ
&first=0
&des=
&wholebpm=156
&des_1=
&des_2=
&des_3=
&des_4=
&des_5=もふもふウサギ
&lv_5=13
&inote_1=
&inote_2=
&inote_3=
&inote_4=
&inote_5=(156){1},
3h[4:3]/5h[4:3],4h[4:3]/6h[4:3],
2h[4:3]/5h[4:3],{4}4h[4:3]/8,5,6,7,
3h[4:3]/7h[4:3],,,,2h[4:3]/6h[4:1],,4h[4:1],,
4h[4:1]/5,3h[4:1],2h[4:1],1h[4:1],{8}8-4[4:1],8,,,8b,,,,
5qq8[2:1]/6,56,6,,6,,6,,
6/8-3[8:1],68,6,,2-5[8:1]/6-1[8:1],,,,
4pp8[2:1]/3,43,3,,3,,3,,
3/1-6[8:1],31,3,,7^4[8:1]/3^8[8:1],,,,
1/5qq7[2:1],15,1,,1,,1,,
2-5[8:1]/6,26,6,,7/6-1[8:1],,7,,
4/5w1[4:1],45,{4},,3/6^3[4:1],
3pp6[8:5],,1b,,
2h[2:1]/5qq5[4:1],5pp5[4:1],{8},{4}2,
1-6[8:1],1-4[8:1]/2,1^6[8:1]/8,1^4[8:1]/2,18,{8},
{4}4qq4[4:1]*pp4[4:1]/5,,{8},{4}5^8[8:1],
1^4[8:1]/5,1/6^1[8:1],2^5[8:1]/6,{8}2/7h[8:3],
{4}
,5qq5[4:1]*pp5[4:1],{8}5,{4},
8^3[8:1]/1,8^5[8:1]/7,8-3[8:1]/1,8-5[8:1]/7,8<8[8:5]*>8[8:5]/1,{8},
{4},,,{8}36,3qq5[8:3]/6pp4[8:3],
{4},,,2b/7b,
{8}
57,7,56,,57,8,5,8,
37,7,35,5,36,,3,,
42,2,43,,42,1-5[8:1],4,1,
6,7,7-4[8:1]/8-3[8:1],,78,,6,,
47,7,46,,47,8-4[8:1],4,8,
2,,2-4[8:1]/5-1[8:1],,25,,2,,
5/3^8[8:1],4,53,,5/1pp1[8:3]*qq1[8:3],1b,,,
,,,7h[4:1],,2,27,,
42,2,43,,42,1,28,{16}6,5,
7,,3,4,{8}2^7[8:1],7^4[8:1],2,,8,,
57,7,56,,57,8,71,{16}3,4,
2,,6,5,{8}7^2[8:1],2^5[8:1],7,,1,,
62,2,63,,62,1,36,{16}7,8,
5,,2,1,{8}4w8[8:1],5,4,,1^4[4:1],,
{4}
4^7[4:1],7^2[4:1],2qq7[2:1],,
,6h[4:1],5q6[8:3],4h[2:1],
,7h[4:1],8p7[8:3],1h[2:1],
,5h[4:1],3q4[8:3],2h[2:1],
,8h[4:1],2p1[8:3],3h[2:1],
,{8}8,3,6h[4:1]/5qq2[2:1],,5,,
,6,6h[4:1],,1,,{4}3/4h[4:1],
2h[4:1],4h[4:1],6h[4:1],8h[4:1],
{8}1,{4}2-5[8:1]/7-4[8:1],2<5[8:3]/7,
{8}5,{4}5>1[4:1],1<5[4:1],5>1[4:1],1,
8-5[8:1]*-6[8:1],8-2[8:1]*-3[8:1],8w4[8:1],8b,
{8}
16,{16}7,8,{8}5,4-7[8:1]/5,,34,2-4[8:1],2-8[8:1],
2,2qq4[8:3],,5pp3[8:3],,,,,
1-5[8:1],2,1/8-4[8:1],7,3^8[8:1]/8,2,3/7^4[8:1],6,
78,1-4[8:1]*-6[8:1],,1,,6h[8:1],7h[8:1],8,
38,{16}2,1,{8}4,5-2[8:1]/4,,65,7-3[8:1],1-5[8:1],
7,1<4[4:1],,12,,3h[8:1],{16}5,6,7,8,
{16}12,,2,4,3,,6,5,{8}7,7-4[8:1]/8-4[8:1],,78,
,,2-5[8:1]/1-5[8:1],,12,,36,,
83,{16}2,1,{8}4,5-1[8:1]/4,,65,7-5[8:1],7-3[8:1],
7,7pp5[8:3],,4qq6[8:3],,,,,
8-4[8:1],7,8/1-5[8:1],2,6^1[8:1]/1,7,6/2^5[8:1],3,
21,8w4[8:1],,8b,,3h[8:1],2h[8:1],1,
61,{16}7,8,{8}5,4-8[8:1]/5,,34,2^5[8:1],1^6[8:1],
2,1pp1[4:1],,1qq1[4:1],,6,{4}6-2[8:1],
5-1[8:1]/6,5/4-8[8:1],3-7[8:1]/4,36,
1-3[8:1]/8-4[8:1],1b-5[8:1]/8b-6[8:1],
1b-3[8:1]/8b-4[8:1],1b/8b,
7-5[8:1]/8-2[8:1],7b-3[8:1]/8b-4[8:1],
7b^4[8:1]/8b^3[8:1],7b/8b,
2-6[8:1]/1-5[8:1],2b-4[8:1]/1b-7[8:1],
2b-6[8:1]/1b-5[8:1],2b/1b,
2<2[4:3]/7>7[4:3],,,,,,
7h[2:1]/4pp4[4:1],4qq4[4:1],{8},{4}7,
8-3[8:1],8-5[8:1]/7,8^3[8:1]/1,8^5[8:1]/7,81,{8},
{4}5pp5[4:1]*qq5[4:1]/4,,{8},{4}4^1[8:1],
8^5[8:1]/4,8/3^8[8:1],7^4[8:1]/3,{8}7/2h[8:3],
{4}
,4pp4[4:1]*qq4[4:1],{8}4,{4},
1^6[8:1]/8,1^4[8:1]/2,1-6[8:1]/8,1-4[8:1]/2,1>1[8:5]*<1[8:5]/8,{8},
{4},,,3-5[8:1]/8-5[8:1],
3b/8b,1v4[8:1]/7v4[8:1],1b/7b,
2h[2:1]/6qq6[4:1],6pp6[4:1],{8},{4}2,
5p4[4:1]/4,5/4>6[4:1],1pp1[4:1],1qq1[4:1],5h[8:3],{8},
{4}3qq3[4:1]*pp3[4:1],,{8},{4}4q5[4:1]/5,
4/5<3[4:1],8qq8[4:1],8pp8[4:1],{8}4h[8:3],
{4}
,5qq5[4:1]*pp5[4:1],{8}5,{4},
8q1[4:1]/1,8/1>7[4:1],4qq4[4:1],4pp4[4:1],8h[8:3],{8},
{16}3,2,1,8,7,6,5,4,{4}3qq5[2:1]/6pp4[2:1],{8}3b/6b,,
{4},,18,{1}27,,,,E
