&title=ZIPANG 2nd
&artist=sanova
&first=-1.135
&des=m
&lv_5=13
&des_5=m
&inote_5=
(152){4},{8},,,,,,5,
3/5,{16},4/6,,,{4}5/3,{16}3,2,1/8,7,
6,5,{8}7/1,{16},8/2,,,6/3,,,,,1,2,3,
{4}4,{16}5/4,,,3/2,,,{8}1/8,{16},7/6,,,4/2,
,,7<4[16:3]/3>8[16:3],,,{8}7/3,{16},,,,,8,1,2,
3,4,{8}6/2,{16}7,,,5,{8}6,4/3,{16},4/3,,,{4}4/3,
{16}2,,,4,{8}3,6/5,{16},6/5,,,{4}6/5,
{16}4,,,5,{8}4,5/4,{16},5/4,,,{4}5/4,
{16}5,4,,6,{8}5,7/4,{16},8/3,,,{4}2/1,
{16}3,,,5,{8}4,6/5,{16},7/6,,,{4}8/7,
{16}6,,,4,{8}5,4/3,{16},3/2,,,{4}2/1,
{16}3,,,5,{8}4,6/3,{16},6/3,,,{4}6/3,
{16}5,,,3,{8}4,5/2,{16},5/2,,,{8}5/2,
{16}3,4,3,4,8,7,5,6,4,3,2,1,7,8,
6,5,8,7,6,5,3,4,2,1,4,3,2,1,6,5,
7,8,5,6,7,8,2,1,3,4,1,2,3,4,6,5,
7,8,,,{8}8,3>8[8:1],4,5/3,{16},7/6,,,{8}5/2,
1-5[8:1],,1/8,,6h[16:3],{16},7h[16:3],,,{4}8,
{8}8-6[8:1],5,{4}8,{8}8-5[8:1],3,
8,4<7[8:1],,4/2>5[8:1],,8/2,{16},8/6,,,{4}8/1,
{8}1h[8:1],2h[8:1],3,4/5,{16},5/6,,,{8}7/8,
1-4[8:1],,1/5,,5/4,{16},3/2,,,{4}8/1,
{8}7,5,6h[8:3],1,2,3,
4/5,6-8[8:1]/3-1[8:1],,6/3,,8/1,{16},7/6,,,{4}5/4,
{8}4,3,2,1,{16}8,7,,,{8}6/8,
{16}1,2,3,4,,6,7,8,,3,2,1,,7,
8,6,,4,5,3,,6,,1,{8}8b,{16}4,3,2,1,
8,7,,5,4,3,2,1,8,7,,2,4,3,5,4,
6,5,,7,1,2,3,4,5,6,,8,7,6,,3,
,2/1,,,8,7,{8}6,{16}4,3,{8}2,{16}5,6,7,8,
1,2,,,4,3,{8}2,5,1b,{16}5,4,6,5,
7,6,,,4,3,{8}2,{16}6,7,{8}8,{16}4,5,6,7,
8,1,{8}2,{16}5,4,6,5,7,8,,,1,2,{8}3,
6,5/4,,5/4,,5/4,,5/4,
,4/3-1[8:1],,4/3,,5/6-8[8:1],,6/5,
,2/1,,8/1,,8/7-5[8:1],,7/8,
,1/2-4[8:1],,2/1,{16},,2/8-5[8:1],2,,,{8}8/1,
,1/2-4[8:1],,2/8,,8/7-5[8:1],,7/1,
,2/4-7[8:1],,4/3,,7/5-2[8:1],,6/5,
,2/7-4[8:1],,7/2-5[8:1],,2/8-4[8:1],,8/1-5[8:1],
,1/6V85[16:3],,6/3,{16},,,,2,1,4,5,
8,7,,,,,{8}2/1,{4}1,{16}1-6[8:1],2,,2,
{8}1,3,4,6/5,{4}5,{16}5-2[8:1],6,,6,
{8}5,8,7,{16}5,6,{4}5,{16}6-1[8:1],5,,5,
{8}6,2,3,4/5,{4}4,{16}3-8[8:1],4,,4,
{8}3,5,6,8/7,{4}7,{16}5-2[8:1],6,,6,
{8}5,8,7,{16}5,6,{4}5,{16}6-1[8:1],5,,5,
{8}6,2,3,4/5,{4}4,{16}3-8[8:1],4,,4,
{8}3,5,{16}3h[16:3],,,8h[16:3],,,,2,8,3,7,4,
6,,,6,5,6,5,1,2,4,3,5,6,7,8,2,
1,3,4,1,2,3,4,6,5,7,8,5,6,7,8,3,
4,2,1,4,3,2,1,7,8,6,5,8,7,6,5,3,
4,2,{8}1,5/1,6<1[8:1],7/5,4/6,{16},2/3,,,{8}4/7,
8-4[8:1],,8/1,,3h[16:3],{16},2h[16:3],,,{4}1,
{8}1-3[8:1],4,{4}1/4,{8}1-4[8:1],6,
1/6,5>2[8:1],,5/7<4[8:1],,1/7,{16},1/3,,,{4}1/8,
{8}8h[8:1],7h[8:1],6,5/4,{16},4/3,,,{8}2/1,
1/8-5[8:1],,8/4,,4/5,{16},6/7,,,{4}1/8,
{8}2,4,3,8/4,7/3,6/2,
5/4,3-1[8:1]/6-8[8:1],,3/6,,1/8,{16},2/3,,,{4}4/5,
{8}5/6,6/7,7/8,8/1,{16}1,8,,,{8}3/1,
{16}8,7,6,5,,3,2,1,,6,7,8,,2,
1,3,,5,4,6,,3,,8,{8}1b,{16}5,6,7,8,
1,2,,4,5,6,7,8,1,2,,7,5,6,4,5,
3,4,,2,8,7,6,5,4,3,,1,2,3,,6,
,7/8,,,1,2,{8}3,{16}5,6,{8}7,{16}4,3,2,1,
8,7,,,5,6,{8}7,4,8b,{16}4,5,3,4,
2,3,,,5,6,{8}7,{16}3,2,{8}1,{16}5,4,3,2,
1,8,{8}7,{16}4,5,3,4,2,1,,,8,7,{8}6,
3,5b,
E
