&title=だから僕は音楽を辞めた
&artist=ヨルシカ
&first=0.01
&des=SuzuRin
&cabinet=DX
&clock_count=4
&des_6=Rin
&lv_6=13.3
&inote_6=(125){4},,,,,,E6,
E5,
{8}E4,5,4,5,6,6/4,3,3/5,
,4,5,4,6-8[8:1],3-1[8:1],6x,3x,
,8h[2:1],1,2,3,4h[2:1],,7,
6,5p4[8:3],4,5,3,3,,,,3h[8:3],
4,5,6>3[8:1]*<8[8:1],5,,,,6h[8:3],
5,4,3>7[16:3],4,{4},{2}6p3[8:3],
C,
{8}3h[8:3],8,1,2,3/1-5[8:1],2/8,{4}1x/7,
{8}6,6h[8:1],4h,{16}5,4,{8},3/5,4,3,
2,3h[8:1],5h,{16}4,5,{8},6/4,5,6,
7,6h[8:1],4h,{16}5,4,{8},3,4,5,
{16}6xh[16:3],{8},{16}7xh[16:3],{8},8>5[4:1],1,8,{4},{8}3,
3h[8:1],5h,{16}4,5,{8},6/4,5,6,
7,6h[8:1],4h,{16}5,4,{8},3/5,4,3,
2,3h[8:1],5h,{16}4,5,{8},6,5,6,
{16}6x/4x,{8},{16}7x/3x,{8},8x/2x,{2}1bxh[4:1],
{4}1v4[4:1],4<7[4:1],7-2[4:1],2>5[4:1],
5-8[4:1],8>3[4:1],3q8[4:1],8>4[4:1],
4-8[4:1],{8}8V26[8:3],7h[8:1],,6xV84[8:3],{4},4<7[4:1],
7>2[4:1],2-4[8:1],6,
5q1[4:1],1>4[4:1],4-7[4:1],7>2[4:1],
2-5[4:1],5<8[4:1],{2}8v2[4:1],
{4}3,4,5,6<1[4:1],
1>4[4:1],4<7[4:1],{2}7p2[4:1],
{4}4h[4:1],5,{8}6h[4:1],4,{4}3,
3h[4:1],6,{8}4h[4:1],5,{4}6,
7h[4:1],8,{8}1h[4:1],8,{4}7,
6>2[4:1]*-4[8:1],6,{8},1,{4}8/1,
7<3[4:1],3<7[4:1],B7,E1,
2>6[4:1],6>2[4:1],8,{8}6,6h[8:3],
,,,5h[4:1],{4},{16}4,5,4,5,
4bx,{8},{16}4bx/5bx,{8},3bx/6bx,{4},{8}6/3,7/2,
1/8-4[8:1],7,8/1-5[8:1],2,1/8-4[8:1],7,8/1V35[4:1],2,
5V71[4:1],6,{4}7h[8:1],,{8}7-3[8:1],7h[16:1],
8-4[8:1],8h[16:1],1-5[8:1],1h[16:1],2-6[8:1],2h[16:1],3<6[8:1],B4,
{4}3,{8}3,{16}4,2,{8}5h[8:1],3h[8:1],6,7/2,
8/1>4[8:1],2,1/8<5[8:1],7,8/1>4[8:1],2,{4}1/8s4[4:1],
{8}4x-8[8:1],8xw4[8:1],{2},{16}8,1,8,1,
{8}8b,2bh[4:1],{4},{8}8-4b[8:1],2-6[8:1],8,2b,
{16}D7/E7/A7,D8,D1,D2,D3,D4,D5,D6,,6b,5,4,3,2,1,8,
7,6,5,4,3,2,1,8,7,6,5,4,3,2,{8}1,
{16},7-4[8:1],,2-5[8:1],,7,,2,,6-1[8:1],,3-8[8:1],,6,,3,
,7-4[8:1],,2-5[8:1],,7,,2,,,,6,,5/4,{8}5/4,
{16}3,4,3,5,2,5,{8}2,{16}6,5,6,4,7,4,{8}7,
{16}4,3,2,8/1,7,6,{8}5/4,,{32}E5,E6,E7,E8,E1,E2,E3,E4,{8}E5,
{16}4>1[8:1],5,,6,,7,{8},8/7,{16}7<4[8:1],8,,1,{8},{16}B2/E2/B1,
{8},{16}B3/E4/B7/E8/B8/B4,{8},E1/E5/B8/B4,{2}B2/B3/B6/B7/B5/B1/Cfh[4:1],
{8},5/4,4,5,6,6/4,3,3/5,
,4/5,5,4,6<8[8:1],3>1[8:1],6x,3x,
,7,8,7,1>3[8:1],6>4[8:1],1x,6x,
,4,5,4,5<3[4:1],4-8[8:15]*-8[8:15],{4},,,{2}B6,
B4,{16}B2,{8},,,{16}1,
{8}2-6[4:5],2,{4},{2}B3,
{4}B7,{2},{8}6,7,
{4}8<5[8:1],8>3[8:1],8-5[8:1],8-3[8:1],
8<5[8:1],8>3[8:1],8-4[8:1],8,
1>4[8:1],1<6[8:1],1-4[8:1],1-6[8:1],
1>4[8:1],1<6[8:1],1-5[8:1],1,
{2}8h[4:1],{8}3,{16}4,2h[16:3],{4},{8}6,
{16}5,6h[16:3],{4},{8}3,{16}4,3h[8:1],{8},{16}4,5,
{8}6,{16}5,6h[16:3],{4},{8}3,{16}3x,2,1w5[4:1],7x,8,1,
{1},{16}6b/4b,
{8},{16}3b/5b,{8},7b/4b,{16},2b/5b,{8},6b/2b,3b/5b,
{4}4bh[1:1],6,,5,
{8},5x/3x-6[16:3],{16}4x/6x,{8},{16}3bx,{4},{8}5/4,6/3,
7/2-5[8:1],1,2/8-6[8:1],1,8/3-5[8:1],2,{4}3/7p7[4:1],
7<8[4:1],{2},{8}2-6[8:1],{16}2,2,
{8}1-5[8:1],{16}1,1,{8}8-4[8:1],{16}8,8,{8}7-3[8:1],{16}7,7,{8}6>3[8:1],B5,
{4}6,{8}2,{16}2,3,{8}4,5,4,6/2,
7<4[8:1],8,7/1>4[8:1],8,1/7<4[8:1],8,{4}7/1s5[4:1],
{8}5x-1b[8:1],1xw5b[8:1],{2},{16}5,4,5,4,
{8}5b,3b,{4}6V42[16:3],1v7b[16:3],1x>8[2:1],
,,,5x-1b[8:1],
{1}5h[8:21],
E
