&title=SIINCA
&artist=ζœ‰ζ˜Ž/Ariake
&first=0
&des=ζ ΌεŠ›
&wholebpm=190.000
&des_6=
&lv_5=14
&lv_6=14
&inote_5=(190){1},
{4}4>5[4:6],,,,4>1[4:2],,,,1h[4:6],,5h[4:4],,,,,,
{4}2>8[4:6],,,,1>4[4:2],,,,4h[4:7],,8h[4:5],,,,,,
{8}3/5h[4:2],,,,6,5,4,3,
{8}4h[4:2],,,,5,4,3,2,
{8}3h[4:2],,,,4,3,2,1,
{8}2h[4:2],,8,,1-3[8:1]*-5[8:1],1,,,
{8}6/4h[4:2],,,,3,4,5,6,
{8}5h[4:2],,,,4,5,6,7,
{8}6h[4:2],,,,5,6,7,8,
{8}7h[8:3],,1,1,6,5,4,3,
{1}2bpp5[4:5]/6bpp1[4:5],,
{1}8<5[4:5]/4>1[4:5],,
{8}5/6h[8:1],4,,3h[8:1]/4,5,,5/6h[8:1],3,
{8},3h[8:1]/4,6,,5-3[8:1]/7-5[8:1],,,,
{8}2/4h[8:1],1,,7/5h[8:1],8,,2/4h[8:1],8,
{8},7/5h[8:1],1,,3-8[8:1]/7-4[8:1],,3b/7b,,
{8}1,2h[8:1],5,1,2h[8:1],5,1,2h[8:1],
{8}5,1,2h[8:1],5,1,2h[8:1],6,6,
{8}8,7h[8:1],4,8,7h[8:1],4,8,7h[8:1],
{8}4,8,7h[8:1],4,8,7,3,5,
{8}1,2h[8:1],5,3,8h[8:1],5,1,2h[8:1],
{8}5,3,8h[8:1],5,1-5[8:1],1,,,
{8}8,7h[8:1],4,6,1h[8:1],4,8,7h[8:1],
{8}4,6,1h[8:1],4,8,8,7/3,7/3,
{16}2-4[32:3],,,,2/4,,,6,5,,4-8[8:1]/7h[16:3],,,,,,
{16}5-3[32:3],,,,1/5,,,2,4,,5<8[8:1]/3h[16:3],,,,,,
{16}4-6[32:3],,,,4/8,,,7,5,,4>1[8:1]/6h[16:3],,,,,,
{24}7,6,5,,,,2/6,3/7,4/8,,,,{16}5,4,3,2,8,7,6,5,
{16}3,,3,4,3,,3,,3/2,,3,,1/3,,3,,
{16}7,,7,8,7,,7,,7/6,,7,,7/5,,7,,
{16}6/4,,6/4,,5/3,,5/3,,{32}4,3,2,1,8,7,6,5,{16}8V26[4:3],,8z4[8:5],,
{1},
{16}3>8[8:1]/5<8[8:1],,,,5b/3b,,,,{32}2/6,3,,,,,2/6,5,,,,,2/6,3,,,
{32},,2/6,5,,,,,1h[8:1],,,,5,,,,2/6,3,,,,,2/6,5,,,,,2/6,3,,,
{32},,2/6,5,,,,,1h[8:1],,,,4,,,,2/6,3,,,,,2/6,5,,,,,2/6,3,,,
{32},,2/6,5,,,,,1s5[60#128:5],,,,4h[16:6]/8h[16:6],,,,{4},,
{8}1b/8b,,,,3h[4:1]/7h[4:1],,,2h[4:1]/6h[4:1],
{8},,1h[4:1]/5h[4:1],,,8h[4:1]/4h[4:1],,,
{8}7>3[4:1],,4,4,5-8[8:1],,,3-5[8:1],
{8},,7-3[8:1],,1,1,{24}8,7,6,5,4,3,
{8}2b/6h[4:1],,1,1,4,3h[4:1]/5,,1,
{8}1,5,6,6,4-6[8:1]*v7[8:1],4,,,
{8}2h[8:2],,8,8,3,5h[4:1],,7,
{8}7,6,{24}8,1,2,3,4,5,{16}6-1[8:1]/7-4[8:1],,,,6/7,,,,
{8}3h[4:1],,8,8,5,6h[4:1]/4,,8,
{8}8,4,3,3,5-7[8:1]*v3[8:1],5,,,
{8}8b,,3h[8:1],4h[8:1],6h[8:1],5h[8:1],2z6[8:3],7s3[16:4],
{8},,,,1/8,,,,
{8}2/6,5,4<7[16:2],3,,2,4-2[16:2],8,
{8},7,5-8[8:1],4,,3,5>2[8:1],1,
{8}8-4[8:1],7-5[8:1],,,2-4[8:1],1-5[8:1],,,
{8}3h[8:1],2h[8:1],1h[8:1],8h[8:1],7h[8:1],6h[8:1],5s1[8:3],4z8[8:2],
{8},,,,2/7,,4-1[8:1],5,
{8},7,5-7[8:1],8,,2,4qq5[8:7],5,
{1}6b,
{16},,6,7,8,1,2,3,4/5,,7,,2/8,,3/4,,
{16}1b/7b,,6,5h[8:1],,7,,5,6,,3,4,3,4,2h[8:1],,
{16}1,8,7,6,1-5[32:4],8,7,6,5/1,,,,4,6,4,6,
{16}5,7,3,4h[8:1],,2,,4,3,,6,5,6,5,7h[8:1],,
{16}1,2,6,7,3,4,5,6,2,3,4,5,1,2,3,4,
{16}6,,3,4h[8:1],,1,,4,3,,6,5,7,3,5h[8:1],,
{16}8,1,2,3,5>2[8:1],6,7,8,1/5,,,,5,1,5,1,
{16}4,2,5,3,7,,5,6,2,5,3,4,1h[4:1],,,,
{16}6,2,6,2,5,3,6,4,7,3,5,4,8,2,4,3,
{4}1bqq6[8:10],,,,3h[8:1],2h[8:1],3h[8:1],4h[8:1],
{4}5qq1[8:10],,,,8h[8:1],7h[8:1],6-4[8:1]*-3[8:1],,
{16}2,,2,,4,3,5,4,6,,6,,5,7,4,5,
{16}3,,3,,4,2,6,5,7,,1,,{24}1/8,2,3,4,,,
{16}7,,7,,5,6,3,4,1,,1,,4,2,6,5,
{16}8,,{24}2,3,4,5,6,7,1,2,3,4b-8[8:1]/5b-1[8:1],,,,,,4b/5b,,,,,,
{4}2b>8[32:46]/7b<1[32:46],,,,,,,,
{32}1,2/8,7/3,4h[32:125]/6h[32:157],,,,,{4},,,
{1}5?w1[6.77#384:2],,,
{1}4?>6[23.7#64:13],6?<4[47.3#32:13]*<4[47.3#32:13],,,
{8}5b,,,,3/7h[4:2],,,,
{8}6,,4,,1h[4:2]/5,,,,
{8}2,,,,3/7h[4:2],,,,
{8}4,5/3,,5,6-3[8:1]/4,,,,
{8}2h[4:2],,,,4h[4:2],,,,
{8}5,,6,,8-6[8:1]/5-3[8:1],,,,
{8}1,,{12}2,3,4,7,6,5,1,2,3,
{12}4/5,6,7,8,1,2,{8}3b/7b,3b/7b,,,
{8}2/6-4[8:1],,,,3,4,5,4,
{8}6-3[8:1],,,,2,4,5,4,
{8}6-2[8:1],,,,1,4,5,4,
{8}6-1[8:1],,2,,8<5[8:1]/4>1[8:1],8/4,,,
{8}2h[8:2],,4,,6,6,5,,
{8}7h[8:2],,5,,3,3,4,,
{8}1h[8:2],,4,,6,6,5,3,
{8}8,8,4,,3/5,3/5,,2,
{16}2b,,6,5,7h[8:1],,5,,3,4,2h[8:1],,4,,6,5,
{16}8h[8:1],,5,,3,4,1h[8:1],,4,,6,,3/7,,3/7,,
{16}4b,,8,5,6h[8:1],,7,,1,4,3h[8:1],,2,,8,5,
{16}6h[8:1],,7,,1,5,1,5,2,6,3,7,2,6,4,8,
{16}2b,3,4,5,1/6,5,4,3,2/8b,7,6,5,4,3,2,1,
{16}3b/8,4,5,6,7/1,6,5,4,3/1b,8,7,6,5,4,3,2,
{16}1b/5b,,5b,,4b/8b,,4b/8b,,3,7,2,6,1,5,8,4,
{16}7h[24:3]/3h[24:3],,,,{32}8,1,2,3,{8}4,6,5,1w5[8:1],,
{1}1b,,,,
{8}4h[1:2],,,6,,,5,,
{8},3,,,2,,1,,
{8}8h[8:14],,,2,,,1,,
{8},7,,,6,,5,,
{32}4/7,3/6,2/5,,
&inote_6=(190){1},
{4}4>5[4:6],,,,4>1[4:2],,,,1h[4:6],,5h[4:4],,,,,,
{4}2>8[4:6],,,,1>4[4:2],,,,4h[4:7],,8h[4:5],,,,,,
{8}3/5h[4:2],,,,6,5,4,3,
{8}4h[4:2],,,,5,4,3,2,
{8}3h[4:2],,,,4,3,2,1,
{8}2h[4:2],,8,,1-3[8:1]*-5[8:1],1,,,
{8}6/4h[4:2],,,,3,4,5,6,
{8}5h[4:2],,,,4,5,6,7,
{8}6h[4:2],,,,5,6,7,8,
{8}7h[8:3],,1,1,6,5,4,3,
{1}2bpp5[4:5]/6bpp1[4:5],,
{1}8<5[4:5]/4>1[4:5],,
{8}5/6h[8:1],4,,3h[8:1]/4,5,,5/6h[8:1],3,
{8},3h[8:1]/4,6,,5-3[8:1]/7-5[8:1],,,,
{8}2/4h[8:1],1,,7/5h[8:1],8,,2/4h[8:1],8,
{8},7/5h[8:1],1,,3-8[8:1]/7-4[8:1],,3b/7b,,
{8}1,2h[8:1],5,1,2h[8:1],5,1,2h[8:1],
{8}5,1,2h[8:1],5,1,2h[8:1],6,6,
{8}8,7h[8:1],4,8,7h[8:1],4,8,7h[8:1],
{8}4,8,7h[8:1],4,8,7,3,5,
{8}1,2h[8:1],5,3,8h[8:1],5,1,2h[8:1],
{8}5,3,8h[8:1],5,1-5[8:1],1,,,
{8}8,7h[8:1],4,6,1h[8:1],4,8,7h[8:1],
{8}4,6,1h[8:1],4,8,8,7/3,7/3,
{16}2-4[32:3],,,,2/4,,,6,5,,4-8[8:1]/7h[16:3],,,,,,
{16}5-3[32:3],,,,1/5,,,2,4,,5<8[8:1]/3h[16:3],,,,,,
{16}4-6[32:3],,,,4/8,,,7,5,,4>1[8:1]/6h[16:3],,,,,,
{24}7,6,5,,,,2/6,3/7,4/8,,,,{16}5,4,3,2,8,7,6,5,
{16}3,,3,4,3,,3,,3/2,,3,,1/3,,3,,
{16}7,,7,8,7,,7,,7/6,,7,,7/5,,7,,
{16}6/4,,6/4,,5/3,,5/3,,{32}4,3,2,1,8,7,6,5,{16}8V26[4:3],,8z4[8:5],,
{1},
{16}3>8[8:1]/5<8[8:1],,,,5b/3b,,,,{32}2/6,3,,,,,2/6,5,,,,,2/6,3,,,
{32},,2/6,5,,,,,1h[8:1],,,,5,,,,2/6,3,,,,,2/6,5,,,,,2/6,3,,,
{32},,2/6,5,,,,,1h[8:1],,,,4,,,,2/6,3,,,,,2/6,5,,,,,2/6,3,,,
{32},,2/6,5,,,,,1s5[60#128:5],,,,4h[16:6]/8h[16:6],,,,{4},,
{8}1b/8b,,,,3h[4:1]/7h[4:1],,,2h[4:1]/6h[4:1],
{8},,1h[4:1]/5h[4:1],,,8h[4:1]/4h[4:1],,,
{8}7>3[4:1],,4,4,5-8[8:1],,,3-5[8:1],
{8},,7-3[8:1],,1,1,{24}8,7,6,5,4,3,
{8}2b/6h[4:1],,1,1,4,3h[4:1]/5,,1,
{8}1,5,6,6,4-6[8:1]*v7[8:1],4,,,
{8}2h[8:2],,8,8,3,5h[4:1],,7,
{8}7,6,{24}8,1,2,3,4,5,{16}6-1[8:1]/7-4[8:1],,,,6/7,,,,
{8}3h[4:1],,8,8,5,6h[4:1]/4,,8,
{8}8,4,3,3,5-7[8:1]*v3[8:1],5,,,
{8}8b,,3h[8:1],4h[8:1],6h[8:1],5h[8:1],2z6[8:3],7s3[16:4],
{8},,,,1/8,,,,
{8}2/6,5,4<7[16:2],3,,2,4-2[16:2],8,
{8},7,5-8[8:1],4,,3,5>2[8:1],1,
{8}8-4[8:1],7-5[8:1],,,2-4[8:1],1-5[8:1],,,
{8}3h[8:1],2h[8:1],1h[8:1],8h[8:1],7h[8:1],6h[8:1],5s1[8:3],4z8[8:2],
{8},,,,2/7,,4-1[8:1],5,
{8},7,5-7[8:1],8,,2,4qq5[8:7],5,
{1}6b,
{16},,6,7,8,1,2,3,4/5,,7,,2/8,,3/4,,
{16}1b/7b,,6,5h[8:1],,7,,5,6,,3,4,3,4,2h[8:1],,
{16}1,8,7,6,1-5[32:4],8,7,6,5/1,,,,4,6,4,6,
{16}5,7,3,4h[8:1],,2,,4,3,,6,5,6,5,7h[8:1],,
{16}1,2,6,7,3,4,5,6,2,3,4,5,1,2,3,4,
{16}6,,3,4h[8:1],,1,,4,3,,6,5,7,3,5h[8:1],,
{16}8,1,2,3,5>2[8:1],6,7,8,1/5,,,,5,1,5,1,
{16}4,2,5,3,7,,5,6,2,5,3,4,1h[4:1],,,,
{16}6,2,6,2,5,3,6,4,7,3,5,4,8,2,4,3,
{4}1bqq6[8:10],,,,3h[8:1],2h[8:1],3h[8:1],4h[8:1],
{4}5qq1[8:10],,,,8h[8:1],7h[8:1],6-4[8:1]*-3[8:1],,
{16}2,,2,,4,3,5,4,6,,6,,5,7,4,5,
{16}3,,3,,4,2,6,5,7,,1,,{24}1/8,2,3,4,,,
{16}7,,7,,5,6,3,4,1,,1,,4,2,6,5,
{16}8,,{24}2,3,4,5,6,7,1,2,3,4b-8[8:1]/5b-1[8:1],,,,,,4b/5b,,,,,,
{4}2b>8[32:46]/7b<1[32:46],,,,,,,,
{32}1,2/8,7/3,4h[32:125]/6h[32:157],,,,,{4},,,
{1}5?w1[6.77#384:2],,,
{1}4?>6[23.7#64:13],6?<4[47.3#32:13]*<4[47.3#32:13],,,
{8}5b,,,,3/7h[4:2],,,,
{8}6,,4,,1h[4:2]/5,,,,
{8}2,,,,3/7h[4:2],,,,
{8}4,5/3,,5,6-3[8:1]/4,,,,
{8}2h[4:2],,,,4h[4:2],,,,
{8}5,,6,,8-6[8:1]/5-3[8:1],,,,
{8}1,,{12}2,3,4,7,6,5,1,2,3,
{12}4/5,6,7,8,1,2,{8}3b/7b,3b/7b,,,
{8}2/6-4[8:1],,,,3,4,5,4,
{8}6-3[8:1],,,,2,4,5,4,
{8}6-2[8:1],,,,1,4,5,4,
{8}6-1[8:1],,2,,8<5[8:1]/4>1[8:1],8/4,,,
{8}2h[8:2],,4,,6,6,5,,
{8}7h[8:2],,5,,3,3,4,,
{8}1h[8:2],,4,,6,6,5,3,
{8}8,8,4,,3/5,3/5,,2,
{16}2b,,6,5,7h[8:1],,5,,3,4,2h[8:1],,4,,6,5,
{16}8h[8:1],,5,,3,4,1h[8:1],,4,,6,,3/7,,3/7,,
{16}4b,,8,5,6h[8:1],,7,,1,4,3h[8:1],,2,,8,5,
{16}6h[8:1],,7,,1,5,1,5,2,6,3,7,2,6,4,8,
{16}2b,3,4,5,1/6,5,4,3,2/8b,7,6,5,4,3,2,1,
{16}3b/8,4,5,6,7/1,6,5,4,3/1b,8,7,6,5,4,3,2,
{16}1b/5b,,5b,,4b/8b,,4b/8b,,3,7,2,6,1,5,8,4,
{16}7h[24:3]/3h[24:3],,,,{32}8,1,2,3,{8}4,6,5,1w5[8:1],,
{1}1b,,,,
{8}4h[1:2],,,6,,,5,,
{8},3,,,2,,1,,
{8}8h[8:14],,,2,,,1,,
{8},7,,,6,,5,,
{32}4/7,3/6,2/5,,
