&title=Class Memories[未完成]
&artist=Antistar feat. Ctymax
&first=0.052
&des=weren
&lv_5=14
&des_5=weren
&inote_5=
(145){4},{32},5h[8:1],,,,,,,,6x,,6x,,6x,,,,4h[8:1],,,,,,,,5x,
,5x,,5x,,,,3h[8:1],,,,,,,,4x,,4x,,4x,,,,2h[8:1],,,,,,,,B7,
,C,,B3,,,,4xh[8:1],,,,,,,,B1,,B2,,E3,,,,5h[8:1],,,,,,,,B2,
,B3,,E4,,,,6h[8:1],,,,,,,,E3,,B3,,B4,,,,7h[8:1],,,,,,,,5bx,
,5bx,,5bx,,,,7bh[8:1]/5-3[8:1],,,,,,,,7x/5,,7x,,7x,,,,6bh[8:1]/4-2[8:1],,,,,,,,4/6x,
,6x,,6x,,,,5bh[8:1]/3-1[8:1],,,,,,,,3/5x,,5x,,5x,,,,4bh[8:1]/2-8[8:1],,,,,,,,4x/2,
,4x,,4x,,,,8bxh[8:1]/1-7[8:1],,,,,,,,1/B7,,B6,,B5,,,,5bxh[8:1]/8x-6[8:1],,,,,,,,8x/B6,
,B5,,B4,,,,3bxh[8:1]/7-5[8:1],,,,,,,,7/E4,,B3,,B2,,,,2bxh[8:1]/6-4[8:1],,,,,,,,6/E3,
,B2,,B1,,,,4h[8:1],,,,,,,,8b,,1x,,2x,,,,5h[8:1],,,,,,,,2b,
,3x,,4x,,,,4xh[8:1],,,,,,,,5x,,6x,,7x,,,,8h[8:1],,,,,,,,3bx,
,2bx,,1bx,,,,8h[8:1]/1b>3b[8:1],,,,,,,,8x/1,,8x,,8x,,,,6h[8:1]/7b>1b[8:1],,,,,,,,6x/7,
,6x,,6x,,,,2h[8:1]/3b<5b[8:1],,,,,,,,2x/3,,2x,,2x,,,,4h[8:1]/5b<7b[8:1],,,,,,,,4x/5,
,4x,,4x,,,,E6h[8:1],,,,,,,,E8,,B8,,B1,,,,E8h[8:1],,,,,,,,E2,
,B2,,B3,,,,E2h[8:1],,,,,,,,B4,,B5,,E6,,,,1b<3<5-8b[8:5],{4},,,{16},,,{32},1b-4v3b[8:3]*-6v7b[8:3],
{4},,{16},,,{32},7bx-1-6-2b[8:3]/3bx-5-2-6b[8:3],
{4},,{16},,,{32},6x/2x,
,5/1,,4/8,,7,,6,,5,,4,,3,,2/8bx,,7,,6,,5,
,3,,5,,3,,5,,3,,5,,3,,6,,2,,6,,2,,6,,2,,6,,2,,,,6x/2x,
,5/1,,4/8,,7,,6,,5,,4,,3,,2/8bx,,7,,6,,5,,3,,5,,3,,5,
,3,,5,,3,,6,,2,,6,,2,,6,,2,,6,,2,,,,6/2,,5/1,,4/8,,7,
,6,,5,,4,,3,,2/8b,,7,,6,,5,,3,,5,,3,,5,,3,,5,,3,,6,
,2,,6,,2,,6,,2,,6,,2,,,,6/2,,5/1,,4/8,,7,,6,,5,,4,,3,
,2/8b,,7,,6,,5,,3,,5,,3,,5,,3,,5,,3,,6,,2,,6,,2,,6,
,2,,6,,2,,7,,1,,7,,1,,7,,1,,7,,1,,,,8x,,8x,,8x,,8bx,
,8bx,,8bx,,8bx,,8x,,1x,,8x,,1x,,8,,2x,,8,,3x,,8,,4x,,8,,5x,,8,
,6x,,8,,7x,,8,,1x,,8,,2x,,8,,3x,,8,,4x,,8x,,4x,,7x,,4,,6x,
,4,,5x,,4,,3x,,4,,2x,,4,,8x,,4,,7x,,4,,6x,,4,,5x,,4,,3x,
,4,,2x,,4,,1x,,4,,8x,,4,,7x,,4,,6x,,4,,5x,,4<4[32:15],,A5,,D6,,A6,
,D7,,A7,,D8,,A8,,D1,{4},,,{16},,,{32},4h[8:1],
,,,,,,,3x,,3x,,3x,,,,5h[8:1],,,,,,,,4x,
,4x,,4x,,,,6h[8:1],,,,,,,,5x,,5x,,5x,,,,7h[8:1],,,,,,,,B2,
,C,,B6,,,,5xh[8:1],,,,,,,,B8,,B7,,E7,,,,4h[8:1],,,,,,,,B7,
,B6,,E6,,,,3h[8:1],,,,,,,,E7,,B6,,B5,,,,2h[8:1],,,,,,,,4bx,
,4bx,,4bx,,,,2bh[8:1]/4-6[8:1],,,,,,,,2x/4,,2x,,2x,,,,3bh[8:1]/5-7[8:1],,,,,,,,5/3x,
,3x,,3x,,,,4bh[8:1]/6-8[8:1],,,,,,,,6/4x,,4x,,4x,,,,5bh[8:1]/7-1[8:1],,,,,,,,5x/7,
,5x,,5x,,,,1bxh[8:1]/8-2[8:1],,,,,,,,8/B2,,B3,,B4,,,,4bxh[8:1]/1x-3[8:1],,,,,,,,1x/B3,
,B4,,B5,,,,6bxh[8:1]/2-4[8:1],,,,,,,,2/E6,,B6,,B7,,,,7bxh[8:1]/3-5[8:1],,,,,,,,3/E7,
,B7,,B8,,,,5h[8:1],,,,,,,,1b,,8x,,7x,,,,4h[8:1],,,,,,,,7b,
,6x,,5x,,,,5xh[8:1],,,,,,,,4x,,3x,,2x,,,,1h[8:1],,,,,,,,6x,
,7x,,8x,,,,1-5[16:3],,,,1,,,,1x,,1x,,1x,,,,6-2[16:3],,,,6,,,,6x,
,6x,,6x,,,,3-7[16:3],,,,3,,,,3x,,3x,,3x,,,,8-4[16:3],,,,8,,,,8x,
,8x,,8x,,,,3h[8:1]/8b<6b[8:1],,,,,,,,8/3x,,3x,,3x,,,,3h[8:1]/2b<8b[8:1],,,,,,,,3x/2,
,3x,,3x,,,,7h[8:1]/6b>4b[8:1],,,,,,,,7x/6,,7x,,7x,,,,5h[8:1]/6b-2b[32:5],,,,,,,,5x/6,
,5x,,5x,,,,E2h[8:1],,,,,,,,E4,,B4,,B5,,,,E4h[8:1],,,,,,,,E6,
,B6,,B7,,,,E6h[8:1],,,,,,,,B8,,B1,,E2,,,,E8h[8:3],,,,E4,,,,B2/E3/B3,
,,,,,,,1bx,,2x,,3x,,4x,,5x,,6x,,7x,,8x,,1x,,2x,,3x,,4x,
,5x/8bx,,7x,,6x,,5x,,4x,,3x,,2x,,1x,,8x,,7x,,6x,,5x,,2bx/4x,,3x,,4x,,5x,
,6x,,7x,,8x,,1x,,2x,,3x,,4x,,5x,,7bx,,6x,,5x,,4x,,3x,,2x,,1x,,8x,
,7x,,6x,,5x,,4x,,1b,,2,,3,,4,,5,,6,,7,,8,,1,,2,,3,,4,
,5/8b,,7,,6,,5,,4,,3,,2,,1,,8,,7,,6,,5,,4,,2b,,3,,4,
,5,,6,,7,,8,,1,,2,,3,,4,,5,,7b,,6,,5,,4,,3,,2,,1,
,8,,7,,6,,5,,4,,1bx,,2x,,3x,,4x/8bx,,7x,,6x,,5x/2bx,,3x,,4x,,5x,{16}8bx,
7,6,5/1bx,2,3,4/7bx,6,5,4,8bx,1,2,{4}3/6xh[32:5],
{32},3,,5,,3,,5,,2,,6,,2,,6,,1,,7,,1,,7,,8x,,8x,,8x,,8x,
,2,,8,,2,,8,,3,,7,,3,,7,,4,,6,,4,,6,,5x,,5x,,5x,,5x-1[32:9],
,4x,,3x,,2x,,1x,,B5,,C,,B1,,A1,,3bxh[32:3],,,,1x,,3,,1x,,3,,1x,,3,
,8x,,3,,8x,,3,,8x,,3,,7x,,3,,7x,,3,,7x,,3,,6,,3,,6,,3,
,6,,3,,5,,3,,5,,3,,5,,3-1-4-8-5[32:105],,4,,3,,4,,3,,4-6-3-7-2b[32:95],{1},,,{4},{16},,,5b,
2bpp4[16:7],{8}5b,{4},,{16},,{32},4b,
,7bqq5[0.4138##0.8276],,4b,,B3,,B2,,E2,,E8,,B8,,B1,,,,,A8,D1,A1,D2,A2,D3,
A3,D4h[32:29],A4,D5,A5,D6,A6,D7,{4}A7h[16:11],,,{16},,,{32}B8/E4,
B7/B3,{16}B6h[32:3]/B2h[32:3],{32},,,,B5/B1,B6/B2,{2}E7h[32:3]/B3h[32:3],
{1},,,,{16},,,
||这是一个标记~
,
{32},5h[8:1],,,,,,,,6x,,6x,,6x,,,,4h[8:1],,,,,,,,5x,
,5x,,5x,,,,3h[8:1],,,,,,,,4x,,4x,,4x,,,,2h[8:1],
E
