&title=星見草
&artist=秋田 真典
&first=0
&des=B(@A@)D
&clock_count=4
&lv_6=13+
&inote_6=(164){1},
{16},,,,,,,,,,,,4,3,2,1,
{8}8bq4[4:1]/4b,,5,6,7v1[32:5],,2h[4:1],,
{4}8qq4[8:3],3-1[8:1],,{16}5,6,7,8,
{8}5b>1[4:1]/1b,,8,7,6q2[32:5],,2,,
{4}3<6[8:1],3>6[4:1]*p6b[4:1],{32},A2,D2,A1,D1,A8,D8,A7,,,,,,,,,
{8}2pp1[16:5]/6h[4:1],,,7,8V27-3[4:3],,2,,
{4}7,3-6V48[8:5],6,4,
{8}2h[2:1],,,,1-5[8:1],8,3-7[8:1],4,
{4}6<4[4:1],1,5-7-1-3[4:1],8,
{16}5,,5,,4/6,,4/6,,3,7,2,8,1-5[8:1],,,,
{16}1bV36-1[2:1]*V74-1[2:1]/5b,Cf,,,,,,,,,,,,,,,
{8}5>2[8:1],,5pp8[8:3],,1,1,1,,
3v2V46[8:3],,6,6>1[16:5],,8,8,,
{4}7<4[4:1],3,2<7[4:1],6,
{8}5>1[4:1],,1<6[16:5],1p5[16:3],,,,,
{8}3<6[8:1],,3qq8[8:3],,7,7,7,,
6-3V51[2:1],,1,1,,2,2-6[8:1],,
2/8>3[8:1],,4,4qq1[8:3],,5,6,7>5[8:3],
{4},5q1[4:1],1q5[4:1],5>1[4:1],
1<5[4:1],5,{32}4x,3x,2x,1x,8x,7x,6x,5x,1b,,,,,,,,
{8}2<7[8:1]/8-4[8:1],2/8,,,6>3[8:1]/5-1[8:1],5/6,,,
2/8,1-3[8:1]/7-3[8:1],,1-5[8:1]/7-5[8:1],,1/7,,4,
3v8[8:1]/5-8[8:1],3/5,,,6v1[8:1]/4-1[8:1],6/4,,,
2/8,3-1[8:1]/7-5[8:1],,3V51[4:1]/7V15[4:1],,3/7,,,
2V86[4:1],,6V42<7[2:1],,1,8,7,6,
5-1V74[8:3],,2,2,,3,3qq4[4:1],,
{4}3/5,7qq8[4:1],7/1,2>1[2:1],
2h[8:3],,,{16}2,3,4,5,
{16}6x/7x,,,6x/7x,,,6x/7x,,8bw4b[8:1],,,,,,,,
{4}1-4[8:1],1-6[8:1],5>2[8:1],5pp2[16:5],
1h[2:1],,2<7[8:1],2q4[8:3],
{8},,,,5V71[4:1],,1p3[4:1],2,
{4}3<1[4:1],,3-7V15[2:1],,
5-1V37[2:1],6,7-3V51[2:1],8,
1<6[4:1],6>3[4:1],3>8[4:1],8>7[16:7],
Ch[2:1],,,{16}7,6,5,4,
{16}2x/3x,,,2x/3x,,,2x/3x,,1bw5b[8:1],,,,,,,,
{4}2/8-3[8:1],6/8<5[8:1],1/8-4[8:1],7/8>7[16:5],
3h[4:1],,8p4[8:1]/4p8[8:1],8>6[16:5]/4<2[16:5],
{8},,,,3v8[8:1]/7,,6,5,
{4}1/4-7[8:1],2>5[8:1],6-1[8:1],8>3[8:1],
{8}7v2[8:1],7,4-1[8:1],4,8<5[8:1],8,3p6[4:1],3,
{4}6>3[4:1],3p6[4:1],6>3[4:1],3>8[4:1],
8<5[4:1],5-2<1[4:1]*v8[4:1],,,
(106)
{8}B7/Ch[8:3]/3-8[16:5],,,B6,,,
B5/Ch[8:3]/7-2[16:5],,,B4,,,
B3/Ch[8:3]/1p5[16:5],,,B2,,,
B1/Ch[8:3]/4<7[16:5],,,B8,,,
B7/Ch[8:3]/5V31[8:3],,,B6,,,
B3/Ch[8:3]/8V64[8:3],,,B2,,,
1-5[4:1],,,7-4[4:1],,,
3-5[4:1],,,6>3[2:1],,,
{2},
(162)
{48}1x,8x,7hx[6:5],,,,,,,,,,{8},5,,5,,,
{16}3h[8:7],,,,,,4,,,,4,,,,8,8,
{8}7x/1h[4:1],,,6/2h[4:1],,5,3qq8[8:5],4,
,5,,6,{32},,,,E7,B6,B5,E5,{8},1,
{48}8/2x,3x,4hx[6:5],,,,,,,,,,{8},7,,7,,,
{16}6h[8:7],,,,,,1,,,,1,,,,3,4,
2h[4:1]/5h[4:1],,,,,,6,5,4h[4:1]/7h[4:1],,,,,,,,
{8}1>5[4:1]/5,,6,7,8w4[8:1],,,,
{16}1/6,2,3-7[8:1],,,,3/7,6,5-8[8:1],,,,5/8,1,2-6[8:1],,
,,2/6,5,4-8[8:1],,,,1b-4[8:1]*-6[8:1],,,,1b,,,,
8/3,7,6-1[8:1],,,,6/2,3,4-1[8:1],,,,4/7,6,5-8[8:1],,
,,5/8,1,2-5[8:1],,,,6hbx[16:3],,,7hbx[16:3],,,8bx,,
1/2,3,4v1[8:1],,,,4/7,6,5<8[8:1],,,,5/1,2,3,,
,,2/6,1/5,8>3[8:1]/4<7[8:1],,,,8bv5[8:1]/4bv1[8:1],,,,8b/4b,,,,
{8}6/2-6[8:1],,7,8,1-5[8:1]/5,,4,3,
2qq7[8:3]/7,7,6,6,5,5,4<8[4:1],4,
{16}8,1,2,3,4,,1V74[16:3]/5V38[16:3],,1/5,,,,Cf,,,,
{16}2,6,3,7,4>6[4:1],,1,,6<4[4:1],,,,4,,5,,
{8}6-2[8:1],6,3-7[8:1],3,5-2[8:1]*-8[8:1],,5,,
{16}1-5[8:1],,5,5,1,,6,,7<4[8:1]/4>1[8:1],,,,7/4,,,,
8V25[16:3],,,,5,,7,,1V75[8:1],,,,4,3,2,1,
4/8-3[8:1],,,,5,,6,,7-4-6[4:1],,3,3,7,,2,,
{4}1-3[8:1]*-7[8:1],1s5[4:1],6-2[8:1],,
{16}3>8[8:1],,4,4,3,,5,,6<1[8:1],,5,,4-7[8:1],,3,,
{4}2/4b-8[8:1],3/4b-2[8:1],6/4b-1[8:1],4b/5,
{16}4/8-4[8:1],1,2,3,4/8,,,,5/1-5[8:1],2,3,4,5/1,,,,
2/6,3,4,5,7,6,5,4,1-5b[8:1]/3-7b[8:1],,,,1b/3b,,,,
4/8,,4h[8:1]/8h[8:1],,,,3,1,2v5[8:1],,3/4,,2/8,,7,,
{8}6V48[4:1],6,,3,2-7[8:1]*-5[8:1],,2,,
{16}4/6,,4h[8:1]/6h[8:1],,,,3V51[4:1],5,1-4b[8:1],,,,,,,,
3/8,,3h[8:1]/8h[8:1],,,,7-2-5[4:1],1,5-8b[8:1],,,,,,,,
1/6,,1h[8:1]/6h[8:1],,,,4-8-5[4:1],8,2-6b[8:1],,,,,,,,
4/7,,4h[8:1]/7h[8:1],,,,3,5,3,,1/8,,2-5b[8:1]/7-4b[8:1],,,,
{1}2b>8z4[4:5]/7b<1s5[4:5],,
{12}3bh[6:1]/6bh[6:1],,,,3/4,3/4,2-5[12:1]/5,,2/7-2[12:1],,7,,
4<7[12:1],,4/1>4[12:1],,1,,6-2[12:1],,6/3-8[12:1],,3,,
7bh[6:1],,,,7/8,7/8,1/6-1[12:1],,6/3-6[12:1],,3,,
8>3[12:1],,8/5<8[12:1],,5,,4h[3:1],,8h[6:1],,{24},3/7,2/6,1/5,
{12}8>6q4[4:11]/4,,,,,Ch[6:13],,,,,,,
{1},,,,
E
