&title=ごはん食べヨ
&artist=Mega Shinnosuke
&first=0.33
&des=野原 吉影
&des_5=
&lv_5=12+
&inote_5=(191){4},{8},,,,,,,6,
,,{4}4,5h[64:1],
{8},3h[64:1],{16},,,7<5[48:29],{4},,{24},3>1[3:2],
,,,,,,,,,,,,,,,8<4[3:2],{4},,,{16},,{8}1,
{16},,,2,
,,,,{4}3h[4:5],{8},6,{16},5,,,{1}4h[2:1],
{4},,,,E7,
C,E3,E6/E4,
8b/7b-5[8:1],1,{8}2>4[8:1],1,{4}8,
7-5[8:1],8,{8}2>4[8:1],1,{4}8,
7-5[8:1],8,{8}2>4[8:1],1,{4}8,
7-4[4:1],4-1[4:1],1-6[4:1],4,
2-4[8:1],1,{8}7<5[8:1],8,{4}1,
2-4[8:1],1,{8}7<5[8:1],8,{4}1,
2-4[8:1],1,{8}7<5[8:1],8,{4}1h[1:1],
4b,5,6,7,
{2}8qq8[2:1],4qq4[2:1],
{4}8,7,2,3,
{8}6,5,7,3h[8:11],,,,,{4}E4,
E5,{8}E6,,,7,
{4}7-5[4:1],7,1-5[4:1],1,
8-4[4:1],8,2-4[4:1],2,
5-7[4:1],5,4-2[4:1],4,
{2}1xs5[2:1],3b,
2-6[4:1],{8}8-4[4:1],,,3,
{4}3-1[4:1],3,5-1[4:1],5,
4b-8[4:1],4,6<3>6[1:1],6x/3hx[1:1],
,,,,4,
5,3,6,
{2}2h[4:1],{4}5V72[1:1]/4v2[1:1],5/4,
,,,,3,
3,6,4,
8-4[16:3],1b/8bqq5[1:1],,1,
2,3,4h[4:1],5,
6h[4:3],{8}E1/B1/E2,E1/B1/E2,,C,{4}E2/B1/E1,
6h[4:3],{8}E1/B1/E2,E1/B1/E2,,C,{4}E1/B1/E2,
6,{8}7<5[4:1],8,7,,,1xpp1[8:3],
1x,1x,,,7b,,,2,
1,3h[8:5],E1/B8/E8,E1/B8/E8,,C,{4}E1/B8/E8,
3h[4:3],{8}E1/B8/E8,E1/B8/E8,,C,{4}E1/B8/E8,
1x-3[8:1],5x<7[8:1],2x-4[8:1],6x<1[16:3],
3-8[4:1],3x,7<4[4:1],7x,
3b,2,1b/8b,7,
{1}6h[4:3]/Cf,
{4}2>5[16:3],2,,7,
1-5[4:1],1,8-4[4:1],8,
2b,5b/4b,8b/7b,2b/1b,
{1}4b>5[47.75#0.9424]/5b<4[47.75#0.9424],
D5f/A5/A4,
{4}1x-6[16:3],7/1,8-4[16:3],8/3,
1b,,,3qq1[8:3],
5pp6[2:1],5x,{8}2,3,{4}4-8-2[2:1]*-8-6[2:1],
4b,,,6pp8[8:3],
4qq3[2:1],4x,{8}7,6,5,4,
{4}3-1[8:1],3,6-8[8:1]/5-1[8:1],5x/6x,
2-4[8:1],2,1-5[8:1]/8-6[8:1],8b/1b,
4x-7[16:3],6/4,5-1[4:1],5/2,
{2}2>4[8:3],5<8[2:1],
{4}1xh[2:1],,,5-7[8:1],
1-3[8:1]/5qq3[8:1],1,{8}4x,2,5,3h[8:5],
{4}6b,,,8-6[8:1],
8/4-2[8:1],4,5-1[4:1],5,
4-8[4:1],4,5-7[16:3],5,
2-4[4:1],2,8-4[4:1],8,
{2}1b>5[2:1],5<1[2:1],
1>5[2:1],{4}5<1[2:1],C,
1>1b[2:1],7x,1>1b[2:1],C,
1>1b[2:1],7x,,5-7[16:3],
5,2-4[8:1],{8}2,1,{4}8,
5-7[16:3],2-4[4:1],{8}2,1,{4}8-5>4[2:1],
{1}8b,
E
