&title=トリックハート
&artist=MIMI feat. 重音テトSV
&first=0.6
&des=mmfc
&lv_5=13+
&inote_5=(150)
{16},,,,3,,6h[8:1],5h[16:1],,,65,,,,E2,,
E3,,E4,,E5,,,3,,,43,,,,6,,
5,,4,,3h[16:3],,,2h[16:3],,,1,,,,1,,
7,,6,,4h[16:3],,,7h[16:3],,,5,,,,4,,
3,,6,,7^5[8:1],,,4,,,2,,,,8,,
7,,3,,4^2[8:1],,,7,,,5,,,,1,,
6,,5,,3^5[8:1],,,2,,,8,,,,7,,
4,,5,,2-5[8:1],,,6,,,7^5-1[4:1],,,,3,,3,,,,
{8}E1/C,E2,E3,E4,E5/C,E6,E7,E8,D1/C,D8/D2,D7/D3,D6/D4,D5/C,,
{8}4,6,5v8[8:1]/7^4[8:1],,,,2^5[8:1]/4v1[8:1],,,,84,84,37,37,2b/6b,,
{8}3,5,{16}2,,6,6,2,,7,,2,,5,,46,,3,,7,,2,2,7^4[8:1],,1,,2h[4:1]/7,,,,
{16}4,,6,,5,,4V28[4:1],4,5,,6,,7h[8:1],,,,6,,54,,3,,2-6[8:1]/1,,8-4[8:1],,,,,,,,
{8}6,2,{16}5,,1,1,5,,2,,5,,8,,71,,6,,5,,4,,3^8[8:1],,8,,5h[4:1]/3,,,,
{8}2,3,1h[16:3]/2-5[16:1],{16},2,,,8,,7x/6x,,5,,43,,27,,1-4[4:1],,5,,6,,7,,8,,E8,,E7,,,,
{16}25,,3,4,2,,6,5,7,,18,,3,,56,,7,8,7,8,7h[8:1],,1,1,4,,3,,
{16}37,,5,,27,,8,6,1^6[8:1],,6^1^3[4:1]b,,5-8[8:1],,,,5,,,,6-3[8:1]/3^6[8:1],,,,36,,,,A7/D8/A8/D1f/A1/D2/A2,,,,
{8}5,8,{16}5,,3,5,4,,34,,2,,18,,75,,6,,2,,5,4,6,,4,,75,,8,,
{8}12,3,4^1[8:1],5,46,7,8^5[8:1],1,28,3,4bqq4[8:1]*pp4[8:1],,4b,,A6/Cf/A2/A8/E8/B7/B6/E6/A5/E1/B1/B2/E3/A3,,
{8},,57,{16}6,4,6,,2,,1-5^2[4:1],,7,,1,,6,,5x,,4,3,4,,2^
4-8[4:1],,5,,2,,6,,7,,27,,1,8,1,,1,,8^6[8:1],,7,,2^4[8:1],,3,,25,,7-4[8:1],5,7,,4-8[8:1],,3,,,,2,,1,,
{8}42,{16}3,5,3,,7,,8-4^7[4:1],,2,,8,,1,,8-5[8:1],,8-3[8:1],,8x,,,,4,,7,,3,,2,,72,,5,4,6,,8^3[8:1]/7,,6,,{24}7,6,5,{16}4,,C,,5-1[8:1],,6,,3-8[8:1],,4,,1x^4[8:1]*^6[8:1],,,,1,,,,
{4}5xh[8:1]/3,5h[8:1]/B2,5h[8:1]/2,5h[8:1]/1,5h[8:1]/8pp3[8:3],6h[8:1],7h[8:1],8h[8:1]/4,4h[8:1]/B7,4h[8:1]/7,4h[8:1]/8,4h[8:1]/1qq6[8:3],3h[8:1],{8}2h[8:1],,1,5,6,7,8^5[8:1],,2,,3^8[8:1],,5,6,7^4[8:1],1,2^7[8:1],3,42,,,,5-1[8:1],1,2,3,4-8[8:1],7,6,5,34,2v4[8:1],1/8v6[8:1],,,,,,
{16}3h[8:1]/4h[8:1],,,2^4-1[4:1]/5,,,16,,,,7,,B2,,5,,6h[8:1]/5h[8:1],,,7^5-8[4:1]/4,,,83,,,,2,,1,,7,,4-1[8:1],,,5,4,,,,8-5[8:1],,,1,8,,C,,{8}84,84,37,37,2b/6b,,,,
{16}2,,6,5,7,,28,,1-4[8:1],,7-4[8:1],,1,,7,,2,,7,8,7^4[8:1],,3,,2h[8:1]/7,,,,
{16}3h[16:2],,5h[16:2],,8,,8V26[4:1],6,2,,3,,4h[8:1],,,,6,,54,,3,,2-5[8:1]/1,,8-5[8:1],,2,,8,,,,
{8}3,43,{16}1-5[8:1],,6,2,7,,8,,4,,3,,18,,7,,6,5,6,5,6-1[8:1],,47,,3h[4:1],,,,
{8}8,7,6h[16:3]/3-7[8:1],{16},3,5,,5,,78,,1,,42,,5v8[8:1],,8<4[4:1],,5,,1,,2,,3,,E2,,E6,,,,
{16}18,,6,6,5,,3,3,4-1[8:1],,6-2[8:1],,4,,6,,8x,3x,1x,4x,2x^5[8:1],,5qq1[4:1],2,6,,6,,
{16}6,,7,,8,,3,4,2-6[8:1],,3,,5-1[8:1],,,,1,,2-6[4:1],,2,,6^5-1[4:1],,7-3[8:1],,8,,7,,,,
{8}2,8,{16}5,,3,1,2,,31,,2-5[8:1],,8-4[8:1],,2,,8,,7,,6,5,7,,48,,5-2[8:1],,8-4[8:1],,
{8}5,8,3^5[8:1],5-8[8:1],3,6,6-1[8:1],1-4[8:1],6,3,Cf/B7/E7/B6/B5/E5/B2/E3/B3/B4,,1-4[8:1]/6^4[8:1],16,,,
{16},,,,17,,6,5,6,,4,,8-4[8:1],,,1,8,,2,,3,,5,,54,,6,,87,,3,,54,,6,,5-2[8:1]/4,,,6,5,,8,,1-5[8:1],,2-4[8:1],,1,,2,,6,,7,,1`8,,1,2,3,,2,3,4,,3,4,5,,,5`4h[16:3],,,8xb```B8h[8:1],,2xb```B2h[16:3],,,6xb```B6h[16:3],,,4xb```B4h[8:1],,7xb```B7h[16:3],,,1xb```B1h[16:3],,,5xb```B5h[16:2],,2xb```B2h[16:2],,7xb```B7h[16:2],,4xb```B4h[8:1],,1b,,3x-1[8:1]/8x,,,5,3,,7,,4`6,,3`4,,4`5,,5`6,7,8,,2x`3,,8,,7`6,,6`5,,2,,3`4,,7,,
{4}2b^5[2:1],,5p8[2:1],,8^7-3[2:1],,3^5-1[2:1],,1-6^8[2:1],,8-2^5[2:1],,5qq1[2:1],,7h[4:1],,
{4}5xh[8:1]/3,5h[8:1]/B2,5h[8:1]/2,5h[8:1]/1,5h[8:1]/8pp3[8:3],6h[8:1],7h[8:1],8h[8:1]/4,{8}37,37,26,26,15,15,84,84,{16}15,,2,4,3,,6,5,7,,4,5,4,5,4,5,{48}3bx/6bx,2bx/7bx,1bx-5[16:1]/8bx-4[16:1],{16},,,{8}Cf,,3-8[8:1],2^5[8:1],3,2,{16}7,,4,8,6<2[8:1],,5,,4,,3,,25,,36,,51,,2,6,4^1[8:1],,36,,2h[4:1]/4,,,,8-4[8:1],,7,,2-5[8:1]/8,,1-6[8:1],,2/6-1[8:1],,4,,3,,2,,
{8}E3,E4,{16}7,,1,8,5V31[4:1],,7,,56,,7,,8-3[8:1],,7,,2-5[8:1]/8,,3,,2/7>3[4:1],,8,,5h[8:1]/7,,,,B5,,E7,,1/8<4[8:1],,,3,3-8[8:1]/8,,2,,1,,2,,6,,5,,4qq1[8:3]/5,,3,,6,,7,,8,,B7/B6/E7,,B2/B3/E3,,,,
{16}25,,3,5,42,,6,4,75,,18,,24,,56,,2,1-5[8:1],3,8,4,,4,3,24,,15,,
{16}68,,17,,8,,1,3,8^3[8:1],,3^8^6[4:1]b,,4-1[8:1],,,,4,,,,3-6[8:1],,6^3[8:1],,7,,8,,A2`D2`A1`D1f`A8`D8`A7,,,,
{8}5,8,{16}74,,3,5,42,,31,,3-7[8:1],,1-4[8:1],,3,,1,,6,,6,1,87,,67,,6-2[8:1],,8-5[8:1],,6,,8,,{8}4^1[8:1],5,46,7,8^5[8:1],1,28,3qq5[4:1],6pp4[4:1],3,6,,{48}A3,E3,B2,B1,E1,A8,E8,B7,B6,E6,A5,A6,B6,C,B2,A2,
