&title=Chartreuse Green
&artist=t+pazolite
&first=0.02
&des=雪魚豆腐/Tane
&wholebpm=180
&PVStart=99.3
&PVEnd=120.6
&des_5=雪魚豆腐
&des_6=Tane
&lv_5=13+
&lv_6=14
&inote_5=(180){1},
{1}2<3[4:3],{2},
{8}7h[2:1],8,1,2,3h[2:1],2,1,8,7-5[8:1],,3-1[8:1],3,,8,8,,
1h[2:1],8,7,6,5h[2:1],1,2,3,4-8[8:1],6<3[8:3],{4},,,
{8}2h[2:1],1,8,7,6h[2:1],7,8,1,2-4[8:1],,6-8[8:1],6,,1,1,2,
,3,2,1,8,7,6pp4[16:11],5,{4}4h[2:1],,{8},1,2,3,
{4}1h[4:1]/2h[4:1],,3h[4:1]/8h[4:1],,{8}1/6h[8:1],,2,2/4h[8:1],,3,38,,
{4}8h[4:1]/7h[4:1],,6h[4:1]/1h[4:1],,{8}8/3h[8:1],,7,7/5h[8:1],,6,61,,
7,8,2,1,7,8,2,1,6,8,3,1,6,8,3,1,7,3,1,5,7,1,3qq5[16:11],5,{1}7h[4:3],
{8}7p4[2:3],1,1,1,2,,2,,3,,3,3,,2,2,2,2q5[2:3],8,8,8,7,,7,,6,6,7,8,8,,7,,
7,{16}7,8,{8}7,7,7,{16}7,6,{8}7,7,7,{16}7,1,{8}7,7,7,{16}7,5,{8}7,7,
{16}7,6,5,4,3,2,1,8,7,6,5,4,3,2,1,8,{8}7,2,5,3-1[8:1],6-1[8:1],3b,6b,,
{16}8/2h[16:3],,,1,2,,4,3,{8}4-7[8:1],2-5[8:1],4,2,
{16}8,,3,4,{8}3,25,1-4[8:1]*-6[8:1],28,1h[16:1],,
3^1[8:1],7^5[8:1],3,7,8-3[8:1],4-7[8:1],8,4,2,{16}6,5,,5,{8}7v4[16:3],3h[8:1],,2,2,
{16}1/7h[16:3],,,8,7,,5,6,{8}5-2[8:1],7-4[8:1],5,7,
{16}1,,6,5,{8}6,74,8-5[8:1]*-3[8:1],71,8h[16:1],,
6^8[8:1],2^4[8:1],6,2,1-6[8:1],5-2[8:1],1,5,{16}7,3,7,3,{8}7,{16}3,6,{8}3,{16}5,4,{4}36,
{16}5/3h[16:3],,,4,3,,1,2,{8}1-6[8:1],3-8[8:1],1,3,
{16}5,,2,1,{8}2,38,4^1[8:1]*^7[8:1],35,4h[16:1],,
2^4[8:1],6^8[8:1],2,6,5^2[8:1],1^6[8:1],5,1,3,{16}7,8,,8,{8}6p1[16:3],2h[8:1],,3,3,
{16}4/6h[16:3],,,5,6,,8,7,{8}8-3[8:1],6-1[8:1],8,6,
{16}4,,7,8,{8}7,61,5^8[8:1]*^2[8:1],64,5h[16:1],,
7^5[8:1],3^1[8:1],7,3,4^7[8:1],8^3[8:1],4,8,{4}7<8[8:3],3,4,{16}5,7,5,7,
{4}5-1[8:1],5/7-4[8:1],7/8-3[8:1],8/5-1[8:1],5/2-5[8:1],2/8^3[8:1]*^5[8:1],8,24,
4-8[8:1],4/2-5[8:1],2/1-6[8:1],1/4-8[8:1],4/7-4[8:1],7/1^6[8:1]*^4[8:1],1,7s3[8:3]/5b,
,,6/5-2[8:1],5/8-4[8:1],8/3-8[8:1],3/5^2[8:1]*^8[8:1],5,31,
1-5[8:1],1/3-8[8:1],3/4-7[8:1],4/1-5[8:1],1/6-1[8:1],64,{8}8h[8:1],1h[8:1],2h[8:1],3h[8:1],
{4}4v7[8:1],4/8^3[8:1],8/6v1[8:1],6/2^5[8:1],2/8-4[8:1],8/1w5[8:1],1,47,
5v2[8:1],5/1^6[8:1],1/3v8[8:1],3/7^4[8:1],7/1-5[8:1],1/8w4[8:1],8,52,
45,{16}3,4,{8}3,{4}54,{16}6,5,{8}6,{8}45,{16}3,3,4,,2<5[4:1],2,4,,{8},,,
{16}3,4,3,,3,2,3,,3,5,3,,3,1,3,,{4}27,{8}1h[8:1],8h[8:1],7h[8:1],6h[8:1],5h[8:1],4h[8:1],
{1}3bq6[2:3]*qq7[2:3],,{2}8h[4:1]/7h[4:1],1h[4:1]/6h[4:1],{8}2h[4:1]/8h[4:1],,,6h[4:1]/4h[4:1],,,3,,
{2}1h[4:1]/2h[4:1],8h[4:1]/3h[4:1],{8}7h[4:1]/1h[4:1],,,3h[4:1]/5h[4:1],,,6,,
{2}4h[4:1]/3h[4:1],5h[4:1]/2h[4:1],{8}6h[4:1]/4h[4:1],,,2h[4:1]/8h[4:1],,,7,,
{4}3qq8[2:3],7,6,5,4,{8}5,5,,6,6,6,{4}7qq4[2:3],8,1,2,{16}3,,,3,,,3,,{8}2,2,1,1,
{8}25,{16}3,4,{8}3,18,74,{16}6,5,{8}6,27,15,{16}3,4,{8}3,26,84,{16}6,5,{8}6,73,
{16}4,8,4,8,3,7,3,7,2,6,2,6,1,5,1,5,{8}8-4[8:1],4-8[8:1],8pp3[8:3]*qq5[8:3],,{2},
{8}34,2,1/8-4[8:1],7,1-5[8:1]/8,2,18,7,6-2[8:1],,26,3-8[8:1],,38,7,,
16,2,38,7,46,2,35,7,1-6[8:1],6^1[8:1],1>8[16:5],5h[8:3],{2},
{8}65,7,8/1-5[8:1],2,8-4[8:1]/1,7,81,2,3-7[8:1],,73,6-1[8:1],,61,2,3,
,4,3,2,15,6,2/7s3[8:3],8,{2}7h[2:1],{8},2,3,4,
{8}65,7,8/1-5[8:1],2,7^4[8:1]/1,6,71,2,3-8[8:1],,83,7-3[8:1],,17,2,,
83,7,61,2,53,7,64,2,8-3[8:1],3^8[8:1],8^5[8:1],4h[8:1],,3,2,1,
58,6,7,8,1,2,3,4,15,8,7,6,5,4,3,2,{16}1,2,3,4,5,6,7,8,15,4,3,2,1,8,7,6,{2}5V38[4:1]/2V48[4:1],{8},78,78,,
{4}6-8[8:1],3,4-8[8:1],6,5-8[8:1],2,3-8[8:1],7,16,{16}5,4,5,,{4}37,{16}4,5,{4}26,{16}2,1,3,1,{8}2,,8,7,6,
{4}3-1[8:1],6,5-1[8:1],3,4-1[8:1],7,6-1[8:1],2,{8}3,24,7,68,{4}1,2V48[4:1]/6,2/8V62[4:1],,5,
&inote_6=(180){1},
{8}
,,,,
,,,,
,,,,
,5,2,6,
3,7,4,8,
5-2[8:1],,7,7-4[8:1],
,1,1,,
,5,3,7,
2,6,1,5,
8<6[4:1],8,5<2[8:3],5,
,,,,
,4,7,3,
6,2,5,1,
4-7[8:1],,2,2-5[8:1],
,8,8,7,
,4,6,3,
7,4,8,5v7[8:1],
7<1[4:1],,,,
,7,8,7,
6h[4:1]/1,1,1,1,
5h[4:1]/1,1,1,1,
5h[4:1]/1,,2,5h[4:1]/2,
,3,5-8[8:1]/3,,
,4,4,4,
7h[4:1]/4,4,4,4,
6h[4:1]/4,4,4,5h[4:1]/4,
,4,5-8[8:1]/4,4,
{16}
1,,2,1,2,,28,,
8,,7,8,7,,17,,
1,8,2,,2,8,3,,
3,8,4,,47,,6,,
4,,3,4,3,,24,,
13,,24,,35,,46,,
57,,6,5,6,,47,,
4,5,4,5,36,,,,
{8}
3qq6[2:1]/6,,6,,
7<2[4:3],,7,,
8,,8,,
8,,7,7,
6pp3[2:1]/3,,3,,
2>7[4:3],,2,,
1,,1,,
1,,2,2,
{16}
12,,3,4,
3,,6,5,
6,,2,4,
3,,7,5,
6,,1,4,
3,,6,,
17,,3,,
28,,8,,
4,5,4,5,
4,5,4,5,
3,6,3,6,
2,7,2,7,
{24}
1,2,3,
7,6,5,
2,3,4,
8,7,6,
{16}5h[4:1],,1b,,
1b,,,,
15,,3,,
7,5,6,,
3,,16,,
6-4[8:1],,28,,
2,,3,,
3^6[8:1],4,3,,
6^3[8:1],,,,
3,,,,
3-6[8:1],,2-4[8:1]/4,,
,,,,
7h[4:1],,5-8[8:1],,
3,,3,,
1,,37,,
7,,15,,
1,,5h[4:1],,
6^3[8:1],,6,,
7,,,,
7,,35,,
3-6[8:1],4,1-4[8:1],,
,,,,
7,,35,,
3,4,2,,
1>5[8:1]/2^5[8:1],,,,
12,,,,
6-2[8:1],,5/8-5[8:1],,
,,,,
1,,3,,
5,,7,,
1,1,1,1,
1,,37,,
5-1[8:1],,5,5,
5,,,,
84,,6,,
2,4,3,,
6,,83,,
3-5[8:1],,71,,
7,,6,,
6^3[8:1],5,6,,
3^6[8:1],,,,
6,,,,
6-3[8:1],,7-5[8:1]/5,,
,,,,
2h[4:1],,4-1[8:1],,
6,,6,,
8,,34,,
1,,56,,
,,4h[4:1],,
3^6[8:1],,3,,
2,,,,
2,,64,,
6-3[8:1],5,8-5[8:1],,
,,,,
2,,64,,
6,5,7,,
8<4[8:1]/7^4[8:1],,,,
87,,,,
3-7[8:1],,4/1-4[8:1],,
,,,,
8,,6,,
4,,2,,
8,,8-4[8:1],8,
8,,8h[8:1],,
,,8h[4:1],,
,,,,
1,,,,
1h[16:1],,1,,
2-5[8:1],1,,1,
2,,8,,
1/8-4[8:1],,,1,
8,,2,,
1/2^5[8:1],,,1,
2,,,,
8h[8:1]/1,,,,
8h[16:1],,8,,
7-4[8:1],8,,8,
7,,1,,
8/1-5[8:1],,,8,
1,,7,,
8/7^4[8:1],,,,
1h[8:1]/7,,,,
{32}1b/4b,2b/5b,3b/6b,4b/7b,
5b/8h[4:1],,,,
{16},,,,
2-5[8:1],1,,1,
2,,8,,
1-5[8:1]/8,,,8,
1,,8,,
8-4[8:1]/1,,,1,
8,,,,
1h[8:1]/8,,,,
8h[16:1],,8,,
7-4[8:1],8,,8,
7,,1,,
8-4[8:1]/1,,,1,
8,,1,,
1-5[8:1],,8-4[8:1],,
1,,8,,
3,,2^5[8:1]/1,,
2,1,2,,
8-4[8:1],1,,1,
8,,2,,
3^6[8:1]/6,,3,6,
3,,,,
8-4[8:1],,,1,
18,,,,
6,,7^4[8:1]/8,,
7,8,7,,
1-5[8:1],8,,8,
1,,7,,
6^3[8:1]/3,,6,3,
6,,,,
1-5[8:1],,,,
8h[8:1]/1,,,,
5h[16:3]/6,,,,
8,1,8,,
3/4h[16:3],,,,
1,8,1,,
4/5h[16:3],,,3,
3h[16:3]/4,,,6,
6/5h[32:7],,,,
{32}4b/6b,3b/7b,2b/8b,1b,
,,,,{16}
8,1,7,,
7,1,6,,
6,1,5,,
5,1,4,,
26,,4,4,
35,,26,,
56,,47,,
38,,21,,
{8}
1>7[4:6],,,,
4,,,,
2,,,1,
,,1,,
8<2[4:6],,,,
5,,,,
7,,,8,
,,8,,
4>6[4:6],,,,
1,,,,
3,,,4,
,,4,,
5<3[4:6],,,,
8,,,,
6,,,5,
,,5,,
{16}
4,,4,,
45,,4,,
4/6h[4:1],,4,,
4,,4,,
4/7h[4:1],,4,,
4,,4/6h[4:1],,
4,,4,,
5h[16:1],,5h[16:1],,
5,,5,,
54,,5,,
5/3h[8:1],,5,,
35,,5,,
5/2h[8:1],,5,,
52,,5/3h[8:1],,
5,,53,,
4h[16:1],,4h[16:1],,
25,,3,4,
3,,25,,
47,,6,5,
6,,47,,
2,5,3,4,
2,,17,,
7,4,6,5,
7,,28,,
4,5,4,5,
3,6,3,6,
2,7,1,8,
2,7,1,8,
1,,18,,
27,,36,,
4-1[8:1]/5-8[8:1],,,,
4b/5b,,,,
2-5[8:1],,2,1,
2,,8,,
7-4[8:1],,7,8,
7,,1,,
2-5[8:1],,1,,
2/8-4[8:1],,7,,
8/1-5[8:1],,2,,
17,,8,,
7-4[8:1],,7,8,
7,,1,,
2-5[8:1],,2,1,
2,,8,,
7-4[8:1],,8,,
7/1-5[8:1],,2,,
1/8-4[8:1],,7,,
82,,1,,
1-5[8:1],,1,8,
1,,7,,
8-4[8:1],,8,1,
8,,2,,
1-5[8:1],,2,,
1/7-4[8:1],,8,,
7/2-5[8:1],,3,,
28,,7,,
8-4[8:1],,8,1,
8,,2,,
1-5[8:1],,1,8,
1,,7,,
8-4[8:1],,7,1,
8,,2,,
1-5[8:1],8,2,7,
1,,,,
2-5[8:1],,2,1,
28,,6,,
7-4[8:1],,7,8,
71,,3,,
2-5[8:1],,1,,
2/8-4[8:1],,6,,
8/3^6[8:1],,1,,
36,,8,,
7-4[8:1],,7,8,
71,,3,,
2-5[8:1],,2,1,
28,,6,,
7-4[8:1],,8,,
7/1-5[8:1],,3,,
1/6^3[8:1],,8,,
63,,1,,
12,,3,4,
3,,17,,
6,,38,,
3,,16,,
87,,6,5,
6,,82,,
2,,47,,
7,,35,,
5,4,5,4,
6,3,6,3,
5,4,6,3,
5,4,7,2,
6,4,8,2,
8,4,6,2,
4,,8b,,
8b,,,,
{8}
2-7[8:1],,6-3[8:1],,
1-6[8:1],,5-2[8:1],,
8-5[8:1],,4-1[8:1],,
7-4[8:1],,3-8[8:1],,
1-6[8:1],,3-8[8:1],3,
1-6[8:1],,4-7[8:1],,
1-6[8:1],,3-8[8:1],3,
1-6[8:1],,4,,
7-2[8:1],,3-6[8:1],,
8-3[8:1],,4-7[8:1],,
1-4[8:1],,5-8[8:1],,
2-5[8:1],,6-1[8:1],,
1-4[8:1],,5-8[8:1],,
8-3[8:1],,4,,
4,7,
1<4[8:1],4v6[4:1],
