&title=《真紅》 ~ Pavane Pour La Flamme
&artist=林柏勲 Bo-Xun Lin feat.幻子 Maboroshik
&first=0
&des=炎の精霊
&lv_5=14
&inote_5=(82.5){16},,,,,,,
{64},,,
{16}5h[16:16],,,,,,,,E6,,,,E4,,,,3``4,,,,4``5,,,,
{48}5x,6xq3b[8:3],7x,
{16},,,
{64},
{16}5,,,,5,,,,5,,
{16}6h[4:1],,5,,4h[32:9],,5,,
{32},6h[32:2],,4h[32:2],5x,
{32}6xh[16:3],,,,,,4h[32:5],
{16}5,,6p3b[16:8],,5,,6,,5,,,,5,,,,5<4b[8:4]*>6b[8:4],,4xh[32:1]/6xh[32:1],,,,,,,,,,,,,,,,
{32},E6,,,E5,,,E4,,,
{16},,,,,
4,,,,4,
{32},5h[8:1],,,,3h[8:1],
{16}4,,,,4/3h[16:1],5h[8:1],,,4,,,,
{24}4/3h[12:1],,5h[12:1],,6h[12:1],,
{16}4,,,,4,,,,4,,,3h[16:3],4,,5h[16:2],,4,,3h[8:1],,4pp7b[8:2],,5h[8:1],,4qq2b[8:1],,,,,,8h[8:1],,3,46,5,5,4h[8:1]/6,,7h[16:1],6h[16:3],5s1b[8:1],,3h[16:1],4h[16:3],5,,,,1pp3b[64:5]*qq7b[64:5],2/8,37,,1,,,,26,3,54,6h[16:3],C,,,,4-1b[16:1]/7,6,53,,8h[16:4],,,,,,,,
5`4h[16:7],
{16},,6<3b[8:3],,,,,,,,5<2b[8:3],,,,4,,,,4qq2>3v8<7b[8:3]*pp6>5v8>1b[8:3],,,,,,,,,,,A6h[16:8]/A2h[8:4],,,,,,,,
{24},
{48}3bx/7bx,4x/8x,1x-6<7-4b[8:2]/5x-2>3-8b[8:2],
{16},,,,,,,,,2h[16:3]/6h[8:1],,,
{48}D6,A5,D5,
{16}A4/1h[16:2],,
{64}8x,7bx/2x,6x/3bx>6b[16:4],5bxp4b[8:2]/4x,
{16},,,,,,,,,37,,4-6-2-8>1-7-3-5b[8:5]/5-3-7-1<8-2-6-4b[8:5],,,36,45,,
{8},,,,,
{64},
{16}2/5p8b[32:3],,3,7,5b,,6h[8:1],7,7>2b[32:3],,45,,7,5-1b[16:1],3,,4>2b[16:1]/6<8b[16:1],5,,,4xq5b[16:3]/6x,,1,,4,,,,2V86<1b[16:3]/8,,3,4,5,,,,4q1b[32:3],,6,2,4b,,3h[8:1],2,2<7b[32:3],,45,,24,5-1b[16:1],,,4qq5b[16:4]/6pp5b[16:4],5,,7,46,,,,,,37,,26,1h[8:1],,4,5>3b[16:1]/2,6,7,8,15,2h[8:1],,4>2b[16:1],5,6<8b[16:1]/1-5b[16:1],2,4,5b,,,1v3b[16:1],8,7<5b[16:1]/4q8b[16:1],3,1,8b,,,1h[8:1],,2,4,6V82b[8:1],,2V46<6<5b[8:5],,1h[16:11],,,,,,,,,,,,,1,1s5b[8:2],,37,28,,2,3,4z8b[4:1],,,,6h[8:1],,,,6h[8:1],,,,6b/5b,,6,,65,,6,,6h[64:4]/5h[64:4],,6h[64:4]/5h[64:4],,4h[64:4]/7h[64:4],,3h[64:4]/8h[64:4],,
{64}1b/2b,38,4z8>1s5b[64:36]/7,6h[64:51]/5,
{8},,,,,,,
{16},
{64}8b/7b,6b/1b,5s1<8-2-6-4b[64:36]/2,3h[64:51]/4,
{8},,,,,,,
{16},
{64}1b/8b,2b/7b,3b/6b-3b[16:1],4bh[64:5]/5bh[64:5],
{16},,,2,
{32},1,1s5b[16:2],,
{32},,7h[32:3],,,3h[32:3],,,,,2,,,1,1h[32:3],,,7,37,,,28,1h[16:1],,8,27,3h[8:1]/6h[16:1],,,,4z8b[8:3],5xh[32:1],6xh[32:1],5xh[32:1],3xh[32:1],2xh[32:1],3xh[32:1],,,
{16},,,,,3x>6b[8:3],,,,,,,,4>7b[8:3],,,,,,,,5pp7<6v1>2b[8:3]*qq3<4v1<8b[8:3],,,,,,,,,,,A3h[8:2]/A7h[8:2],,,,,
{64},
{48}2bx/6bx,1x/5x,4x<6p7b[8:2]/8x>2p3b[8:2],
{16},,,,,,,,,6h[16:3]/2h[8:1],,,
{48}D4,A4,D5,
{16}A5/8h[16:2],,
{64}1x,2bx/7x,3x/6bx<7-1<8-2>3b[16:4],4bxq5b[8:2]/5x,
{16},,,,,,,,,37,,4z8>1-7-3-5b[8:5]/5s1<8-2-6-4b[8:5],,,36,45,,
{8},,,,,
{16}7/4q1b[32:3]*<6b[32:1],,6,2,4b,,3h[8:1],2,2<7b[32:3],3,54,6,2,4z8b[8:1],6,2,5<7b[16:1]/3>1b[16:1],4,,,5xp4b[16:3]/3xq4b[16:3],,8,,5,,,,7V13>8b[16:3]/1,,6,5,47,,,,5p8b[32:3]*>3b[32:1],6,3,7,5b,,6h[8:1],7,7>2b[32:3],6,54,6,75,4-8b[16:1],3,7,5q7b[16:4]/3p1b[16:4],4,,6,53,,,,,,62,,7b/3bpp1b[16:3],,5,4,7<5b[16:1]/3,,8,,78,,1xq5b[16:1]/4x>2b[16:1],,6xh[32:1]/7xh[32:1],,14,,8<5b[16:1],,4,
{32}1,2,3,,3h[8:1],,
{16},4<8b[32:5],,7>4b[32:7]/2,,46,,,6,,5h[8:1],,6,7,4/8>3b[64:5],,4/6h[16:1],7h[16:1],8,6,5,,8-4b[16:1],,2/6h[16:1],7h[16:1],8,6,5,3,6x<1b[16:2]/2x,,1>4b[16:2],,4p6b[16:2],,6,,5b>6b[16:3]*<4b[16:3],,5,,A5f/D5/D6,,,,
{16}2bxh[16:1]/5bx,3h[16:1],4h[16:1],5,6h[16:1]/4,5h[16:1],4h[16:1],3h[16:1],2h[16:1],
{32}3h[16:1],4,4h[16:1],,5,,6h[16:1]/4,,
{16}5h[16:1],4h[16:1],
{32}3h[16:1],2,2h[16:1],,
{16}3h[16:1],4h[16:1],5,6h[16:1]/4,5h[16:1],4h[16:1],
{32}3h[16:1],2,2h[16:1],,
{16}3h[16:1],4q1b[16:1]*qq2b[16:1],,35,4,,
{32},7,
{16}7bxh[16:1],6h[16:1],5h[16:1],4,3h[16:1]/5,4h[16:1],5h[16:1],6h[16:1],7h[16:1],
{32}6h[16:1],5,5h[16:1],,4,,3h[16:1]/5,,
{16}4h[16:1],5h[16:1],
{32}6h[16:1],7,7h[16:1],,
{16}6h[16:1],5h[16:1],4,3h[16:1]/5,4h[16:1],5h[16:1],
{32}6h[16:1],,7h[16:1],,
{32}6h[16:1],5p8b[16:1]*pp7b[16:1],5,,,,2x/3x,,,,,,,2,2h[16:1],,3h[16:1],,4,,6h[16:1]/7,,5,,4h[16:1]/5,,3,,1/2h[16:1],,3,,3/4h[16:1],,5,,7h[16:1]/8,,6,,5/4h[16:1],,3,,1b/2h[16:1],,3,,4b/5h[16:1],,6,,8b/7h[16:1],,5,,5b/4h[16:1],,3,,8b/2h[16:1],,3,,4b/5h[16:1],,6,,7h[16:1]/1b,,5,,4h[16:1]/5b,,3,,8/2h[4:1],,
{16}4bx-8b[16:1],A6h[16:3],E6h[16:2],E5h[16:1],A4,2h[16:1],3h[16:1],4,
5b-1b[16:1]/7h[4:1],A3h[16:3],E4h[16:2],E5h[16:1],A5,7h[16:1],6h[16:1],5,
4b-8b[16:1]/1h[4:1],A6h[16:3],E6h[16:2],E5h[16:1],A4,2h[16:1],3h[16:1],4h[16:1],
5bw1b[20.625#4:1],,7bh[8:5]/3bh[8:5],,,,,,,,,,,,,,,,,,,,,,,,,,,,,,,,,,,,
{32}E6,,,E5,,,,E4,,,,E6,,,,,
{64},E5,
{16},,,,,,,,,
{64}D4,4xh[64:60],,,,,,,,,,,,,,,,,,,,,,,,,,,D6,5xh[64:33],,
{16},,,,,,,,
{64}E4,B4,B5,E6,
