&title=華爛漫 -Flowers-
&artist=TЁЯRA
&first=0
&des=谱面-200号
&wholebpm=160
&lv_5=11+
&inote_5=(160){1},
{8}8/1,2/7,
{4}3p7[8:1]/6,6<1[8:1],4p7[8:1],5q2[8:1],3>8[8:1],6q2[8:1],4h[2:1],,
6q2[8:1],3>8[8:1],5q2[8:1],4p7[8:1],6<1[8:1],3p7[8:1],5-1[8:1],2b,
3>8[8:1]/8,7<4[8:1],1q6[8:1],8p3[8:1],4>1[8:1],5<8[8:1],2-7[8:1]*-5[8:1],,
6<1[8:1],2>5[8:1],8p3[8:1],1q6[8:1],5<8[8:1],4>1[8:1],7w3[8:1],7b,
{8}1-5[8:1]/5,,8,8,7h[8:5],,6,6,,5,4,3,2-7[8:1]/6-3[8:1],,,,
1>4[8:1],,8,8,7h[8:3],,8,8,,1>4[8:1],8,7/1,
{16}5,6,7,8,5,6,7,8,
{8}1b-5[8:1]/5,,8,7,6h[8:5],,7,7,,8,8h[4:1],,{16}1,2,3,4,5,6,7,8,{8}
1>4[8:1],,8,8,7h[4:1],,5,5,6/4,7,5/3,2,8v3[8:1]/1v6[8:1],,,,
7h[4:1]/1>4[8:1],,1,,7h[4:1]/1q5[8:1],,1,,
1v6[8:1],,1/7,8,8w4[8:1],,8,,
2h[4:1]/8<5[8:1],,8,,2h[4:1]/8p4[8:1],,8,,
8v3[8:1],1,8/2,1,1w5[8:1],,,,
7h[4:1]/1>4[8:1],,1,,8h[4:1]/2>5[8:1],,2,,
3qq8[2:1]/1,,4,4,,5,,6,6h[8:3],,,7>2[4:1],,,6,,1/7,,1b/7b,,
3-1[16:1],,3/5-7[16:1],,3/5,,3-8[16:1],4,3/5,,
7/1,8,{16}7<4[8:1]/1,,8,1,7,,2-5[8:1],,2,,,,
{8}6-1[8:1],5,4/6,,3-8[8:1],4,3/5,,
7h[4:1]/1,8,{16}1h[8:1],,8,1,7<4[8:1],,2,,7/3,,,,
{8}3-8[8:1],4,5/3,,6-1[8:1],5,6/4,,
2/8,1,{16}2>5[8:1]/8,,1,8,2,,7-4[8:1],,7,,,,
{8}3-7[8:1],4,5/3,,6-2[8:1],5,6/4,,
3/1,2,3/4,5,6/8,7,1-5[8:1]/8-6[8:1],,
{1}1p1[1:3]/8>8[1:3],,,,
{8}2/8,3,4/5,,7/1,6,5/4,,2/8,3,4,5,6,7,1/8,,
7/1,6,5/4,,2/8,3,4/5,,7/1,6,5,4,3,2,8-4[8:1]/1-5[8:1],,1pp4[2:1]/8qq5[2:1],,,,,,,,
2q2[2:1],1,8,,7,6,5,,2p2[2:1],1,8,,7,6,5,,
7p7[2:1],8,1,,2,3,4,,7q7[2:1],8,1,,2,3,4,,
2>5[8:1],1,8,,7<4[8:1],8,1,,2,4,3,{16}1,1,3<6[8:1],,2,,1,,,,
{8}7<4[8:1],8,1,,2>5[8:1],1,8,,7h[8:1],6h[8:1],5h[8:1],4h[8:1],3h[8:1],2h[8:1],1b,,
{8}3-7[8:1],4,5/3,,6-2[8:1],5,6/4,,
3/1,2,1/7<4[8:1],{16}8,1,7-3[8:1],,8,,7/1,,,,
{8}2-6[8:1],1,8/2,,7-3[8:1],8,7/1,,
2h[8:1]/8,1,{16}8h[8:1]/2,,1,8,2>5[8:1],,7/1,,2/6,,,,
{8}3-8[8:1]/5-8[8:1],4,5/3,,6-1[8:1]/4-1[8:1],5,6/4,,
6/8,7,8/2>5[8:1],{16}1,8,2-6[8:1],,1,,2/8,,,,
{8}7-4[8:1]/1-4[8:1],8,1/7,,2-5[8:1]/8-5[8:1],1,2/8,,
6/1,7/2,{16}3,8,3,8,2,7,2,7,1,6,1,6,2,5,3,4,
{8}2-5[8:1],2,6-1[8:1],6,2>5[8:1],2,6<1[8:1],6,3-8[8:1],3,7-4[8:1],7,
3>8[8:1],3,7<4[8:1],7,1-5[8:1],1,8-4[8:1],8,7-3[8:1],7,6-2[8:1],6,
{4}4-8[8:1],4/7<4[8:1],7/3-7[8:1],3/4,
{8}6-1[8:1],6,2-5[8:1],2,6<1[8:1],6,2>5[8:1],2,7-4[8:1],7,3-8[8:1],3,
7<4[8:1],7,3>8[8:1],3,5-1[8:1],5,4-8[8:1],4,3-7[8:1],3,2-5[8:1],2,
8-4[8:1],8,8/3-7[8:1],,3/5w1[8:1],,5b,,
3,2,1,8,6,5,4,3,8,1,2,3,4bpp6[1:1]/5bqq3[1:1],
